Французский попутчик (2017) WEB-DLRip от Files-x

Ответить на тему
 
Автор Сообщение

papa1951deda ®

Пол: Мужской

Стаж: 1 месяц 25 дней

Сообщений: 175

Откуда: Казахстан

Создавать темы 10-Янв-2019 14:47

[Цитировать]

Французский попутчик Год выпуска: 2017
Жанр: Боевик
Выпущено: Россия, Стар Гелакси, Star Media
Режиссёр: Алексей Феоктистов
В ролях: Кирилл Плетнёв, Мария Андреева, Надежда Жарычева, Борис Клюев, Олег Карин
О фильме: Студентка Елена Михалушкина летит в другую страну на опознание отца, погибшего в авиакатастрофе. Еще в российском аэропорту она знакомится с Андреем Егоровым, который уже несколько лет живет и работает за границей и возвращается теперь туда. Молодой человек вызывается помочь хорошенькой девушке, которая не знает языка и совсем одна в незнакомой стране. Он сопровождает ее в госпиталь и в гостиницу. После того как они расстаются у отеля, Андрей становится свидетелем того, как на Елену нападают неизвестные и пытаются похитить ее. Егоров бросается ей на помощь и расправляется с нападавшими. Андрей с Леной пытаются понять, кому и что нужно от девушки. Но вопросов больше, чем ответов… Андрею еще не раз придется спасать Елену. Но преступникам все же удастся осуществить свою цель и похитить Елену, причем уже в России, куда Егоров вывезет девушку. Теперь Андрей должен вырвать Лену, которую уже успел полюбить, из лап злодеев. Он обязан это сделать еще и потому, что их последняя встреча закончилась ссорой. Девушка начала догадываться, что Андрей не просто так оказался рядом с ней в самолете — он совсем не тот, за кого себя выдает…
Качество: WEB-DLRip
Видео: XviD, ~ 2064 Кбит/с, 720x400, 25 кадр/с
Аудио: AC3, 2 ch, 192 Кбит/с
Продолжительность: 01:26:46
Перевод: Не требуется
Субтитры: Нет

Скриншоты

MediaInfo

General
Complete name : C:UsersuserDownloadsVideoFrancuzskiy.poputchik.2017.WEB-DLRip. Files-x.avi
Format : AVI
Format/Info : Audio Video Interleave
File size : 1.37 GiB
Duration : 1h 26mn
Overall bit rate : 2 266 Kbps
Writing application : VirtualDubMod 1.5.10.3 | www.virtualdub-fr.org || (build 2550/release)
Writing library : VirtualDubMod build 2550/release
Video
ID : 0
Format : MPEG-4 Visual
Format profile : Advanced Simple@L5
Format settings, BVOP : 1
Format settings, QPel : No
Format settings, GMC : No warppoints
Format settings, Matrix : Custom
Codec ID : XVID
Codec ID/Hint : XviD
Duration : 1h 26mn
Bit rate : 2 064 Kbps
Width : 720 pixels
Height : 400 pixels
Display aspect ratio : 16:9
Frame rate : 25.000 fps
Color space : YUV
Chroma subsampling : 4:2:0
Bit depth : 8 bits
Scan type : Progressive
Compression mode : Lossy
Bits/(Pixel*Frame) : 0.287
Stream size : 1.25 GiB (91%)
Writing library : XviD 73
Audio
ID : 1
Format : AC-3
Format/Info : Audio Coding 3
Mode extension : CM (complete main)
Codec ID : 2000
Duration : 1h 26mn
Bit rate mode : Constant
Bit rate : 192 Kbps
Channel(s) : 2 channels
Channel positions : Front: L R
Sampling rate : 48.0 KHz
Bit depth : 16 bits
Compression mode : Lossy
Stream size : 119 MiB (8%)
Alignment : Split accross interleaves
Interleave, duration : 40 ms (1.00 video frame)
Interleave, preload duration : 500 ms
Релиз от:

Релиз подготовлен R.G.Files-x

[Профиль] [ЛС]
Показать сообщения:    
Ответить на тему

Текущее время: 16-Янв 15:12

Часовой пояс: UTC + 3



Вы не можете начинать темы
Вы не можете отвечать на сообщения
Вы не можете редактировать свои сообщения
Вы не можете удалять свои сообщения
Вы не можете голосовать в опросах
Вы не можете прикреплять файлы к сообщениям
Вы не можете скачивать файлы