Через червоточину с Морганом Фрименом / Through The Wormhole with Morgan Freeman [7,8 сезоны:1 серия из 8] (2017) HDTVRip (720p)

Ответить на тему
 
Автор Сообщение

Abakan2000 ®

Пол: Мужской

Стаж: 2 месяца 2 дня

Сообщений: 7

Создавать темы 10-Янв-2019 22:19

[Цитировать]

Через червоточину с Морганом Фрименом / Through The Wormhole with Morgan Freeman
Год выпуска: 2017
Жанр: Документальный, научно-познавательный, исследования, гипотезы
Выпущено: США, The Incubator, Revelations Entertainment, Discovery Communications, Science Channel
Режиссер: Курт Сайенга
В ролях: Морган Фримен
О фильме: Испокон веков человечество ищет ответ на вопрос, какое место мы занимаем во Вселенной. Тысячелетиями люди мечтали раскрыть самые глубинные тайны мироздания. В последнем сезоне программы «Сквозь кротовую нору» Морган Фримен продолжит изучать самые волнующие темы на стыке философии и физики. Мы попытаемся дать ответы на некоторые из самых актуальных вопросов нашего времени: «Из чего рождается террорист?», «Возможно ли, что биологических полов больше двух?» и «Можем ли мы все быть гениями?». Вы готовы отправиться на поиски истины? Смотрите 7 и заключительный 8 сезоны программы «Через червоточину с Морганом Фрименом»

Качество: HDTVRip (720p)
Видео: MPEG-4 AVC, ~ 4000 Кбит/с, 1280x720
Аудио: MP2, 2 ch, 192 Кбит/с
Продолжительность: 1 х ~ 00:43:00
Перевод: Профессиональный (двухголосый закадровый)

Скриншоты


MediaInfo

General
Unique ID : 13464853508639499847288152774750886657 (0xA213C88709D34950E72BFFC48CDDB01)
Complete name : E:\ВИДЕО\Документальные\Через червоточину с Морганом Фрименом S07-08.720p GeneralFilm\01 Через червоточину с Морганом Фрименом GeneralFilm.mkv
Format : Matroska
Format version : Version 2
File size : 1.29 GiB
Duration : 43 min 50 s
Overall bit rate mode : Constant
Overall bit rate : 4 198 kb/s
Writing application : Lavf54.63.104
Writing library : Lavf54.63.104
Video
ID : 1
Format : AVC
Format/Info : Advanced Video Codec
Format profile : High@L4.1
Format settings : CABAC / 3 Ref Frames
Format settings, CABAC : Yes
Format settings, ReFrames : 3 frames
Codec ID : V_MPEG4/ISO/AVC
Duration : 43 min 50 s
Bit rate mode : Constant
Bit rate : 4 000 kb/s
Width : 1 280 pixels
Height : 720 pixels
Display aspect ratio : 16:9
Frame rate mode : Constant
Frame rate : 50.000 FPS
Standard : PAL
Color space : YUV
Chroma subsampling : 4:2:0
Bit depth : 8 bits
Scan type : Progressive
Bits/(Pixel*Frame) : 0.087
Stream size : 1.20 GiB (93%)
Default : No
Forced : No
Color range : Limited
Color primaries : BT.709
Transfer characteristics : BT.709
Matrix coefficients : BT.709
Audio
ID : 2
Format : MPEG Audio
Format version : Version 1
Format profile : Layer 2
Codec ID : A_MPEG/L2
Codec ID/Hint : MP2
Duration : 43 min 50 s
Bit rate mode : Constant
Bit rate : 192 kb/s
Channel(s) : 2 channels
Sampling rate : 48.0 kHz
Compression mode : Lossy
Delay relative to video : 4 ms
Stream size : 60.2 MiB (5%)
Language : English
Default : Yes
Forced : No

Содержание

01.7 сезон, 1 эп. Существует ли частная жизнь?
Релиз от:
[Профиль] [ЛС]
Показать сообщения:    
Ответить на тему

Текущее время: 16-Янв 15:10

Часовой пояс: UTC + 3



Вы не можете начинать темы
Вы не можете отвечать на сообщения
Вы не можете редактировать свои сообщения
Вы не можете удалять свои сообщения
Вы не можете голосовать в опросах
Вы не можете прикреплять файлы к сообщениям
Вы не можете скачивать файлы