Discovery. Голые и напуганные / Naked and Afraid [8 сезон: 1-5 серии из 6] (2017) HDTVRip от GeneralFilm

Reply to topic
 
Author Message

Starik60 ®

Gender: Male

Longevity: 6 months 11 days

Posts: 133

Location: Москва, Россия

Post 16-Jan-2019 00:02

[Quote]

Голые и напуганные / Naked and Afraid Год выпуска: 2017
Жанр: Документальный, реалити-шоу, экстрим
Выпущено: США, Discovery, Renegade 83
Режиссер: Мисси Хьюз, Тимми Пол
В ролях: Клинт Живоин, Эррол Джеймс Снайдер, Пума Кабра, Кайли Фурно
О фильме: Двум голым и незнакомым друг с другом мужчине и женщине приходится выживать в дикой глуши и в экстремальных погодных условиях. В этом сезоне участникам предстоит побывать в африканской саванне и в джунглях Гайаны, на мексиканском острове Кайо Венадо, во влажном тропическом лесу в Таиланде и в непроходимых джунглях Никарагуа. Каждая пара «Робинзонов» должна провести на месте высадки 21 день без одежды, продовольствия и снаряжения, но им разрешено взять с собой одну личную вещь. При этом никакой награды они не получат, ведь это испытание не за главный приз, а проверка своей физической и психологической выносливости. Подстерегающие опасности и непредсказуемость погоды заставят смельчаков действовать сообща. Сталкиваясь с голодом и жаждой, погодными катаклизмами и неизбежными проблемами, удастся ли нашим героям пройти проверку на прочность, или природа окажется сильнее человека?

Качество: HDTVRip
Видео: XviD, ~ 1600 Кбит/с, 720x400
Аудио: AC3, 2 ch, 192 Кбит/c
Продолжительность: 5 x ~ 00:44:00
Перевод: Профессиональный (многоголосый, закадровый)
Cубтитры: нет

Скриншоты



MediaInfo

General
Complete name : G:\Раздачи 2\Голые и напуганные s08 GeneralFFilm\01 Голые и напуганные GeneralFilm.avi
Format : AVI
Format/Info : Audio Video Interleave
File size : 564 MiB
Duration : 43 min 44 s
Overall bit rate : 1 802 kb/s
Writing application : VirtualDubMod 1.5.10.3 | www.virtualdub-fr.org || (build 2550/release)
Writing library : VirtualDubMod build 2550/release
Video
ID : 0
Format : MPEG-4 Visual
Format profile : Advanced Simple@L5
Format settings : BVOP1 / Custom Matrix
Format settings, BVOP : 1
Format settings, QPel : No
Format settings, GMC : No warppoints
Format settings, Matrix : Custom
Codec ID : XVID
Codec ID/Hint : XviD
Duration : 43 min 44 s
Bit rate : 1 600 kb/s
Width : 720 pixels
Height : 400 pixels
Display aspect ratio : 16:9
Frame rate : 25.000 FPS
Color space : YUV
Chroma subsampling : 4:2:0
Bit depth : 8 bits
Scan type : Progressive
Compression mode : Lossy
Bits/(Pixel*Frame) : 0.222
Stream size : 501 MiB (89%)
Writing library : XviD 73
Audio
ID : 1
Format : AC-3
Format/Info : Audio Coding 3
Commercial name : Dolby Digital
Codec ID : 2000
Duration : 43 min 44 s
Bit rate mode : Constant
Bit rate : 192 kb/s
Channel(s) : 2 channels
Channel layout : L R
Sampling rate : 48.0 kHz
Frame rate : 31.250 FPS (1536 SPF)
Bit depth : 16 bits
Compression mode : Lossy
Stream size : 60.1 MiB (11%)
Alignment : Split accross interleaves
Interleave, duration : 40 ms (1.00 video frame)
Interleave, preload duratio : 500 ms
Service kind : Complete Main

Внимание! Раздача ведётся путём добавления новых серий!

Внимание! Раздача ведётся путём добавления новых серий; при каждом добавлении создfётся новый торрент. Чтобы начать докачку новой серии, пользователям необходимо сделать следующее: (1) остановить скачивание, (2) удалить старый торрент у себя из клиента (старые серии удалять не надо), (3) скачать новый торрент и запустить его у себя в клиенте вместо старого, при этом указать клиенту путь в старую папку куда и должно происходить скачивание новых серий.
Ваш клиент при этом должен произвести хеширование (проверку) старой папки (если не производит сам - помогите ему сделать это), и будет докачивать только те серии которых у вас ещё нет. Старые серии при этом не удаляются, а продолжают раздаваться!
Eсли вы уже удалили старые серии, то предотвратить повторную закачку старых серий можно, отжав галочку в соответсвующих местах при запуске нового торрента.
Благодарю за отличный постер ValkiriaGF
Релиз от:
[Profile] [PM]

Satana

Gender: Male

Longevity: 3 months 6 days

Posts: 3

Post 25-Feb-2019 00:30 (after 1 month 9 days)

[Quote]

Starik60 Приветствую !
Благодарю за тв рипы !
А последнюю серию удалось рипнуть ? Если да , когда примерно добавится в эту раздачу ?
Спасибо !
[Profile] [PM]

Starik60 ®

Gender: Male

Longevity: 6 months 11 days

Posts: 133

Location: Москва, Россия

Post 25-Feb-2019 00:40 (after 10 minutes)

[Quote]

Привет.
К сожалению показ по дискавери данной передачи приостановлен, как они объяснили по тех. причинам.
[Profile] [PM]

Satana

Gender: Male

Longevity: 3 months 6 days

Posts: 3

Post 25-Feb-2019 01:14 (after 33 minutes)

[Quote]

Тех причинам :)) Серий просто свежих ещё нет , судя по по всему в марте начнут вещать свежий сезон(у нас через полгода- год как обычно) . судя по списку https://en.wikipedia.org/wiki/List_of_Naked_and_Afraid_episodes в этом сезоне(в данной раздаче) здесь не хватает спэшэлла "Special: Naked And Afraid Of Sharks" July 29, 2018 .
посмотрю в оригинале тогда , дёрнул сцэн релиз Shark.Week.2018.Naked.and.Afraid.of.Sharks.WEB.x264-CAFFEiNE :)
[Profile] [PM]

Satana

Gender: Male

Longevity: 3 months 6 days

Posts: 3

Post 05-Mar-2019 03:01 (after 8 days)

[Quote]

Новый сезон в эфир полетел , уже вышел спэшл , 1 и 2 серии. :)
[Profile] [PM]
Display posts:    
Reply to topic

Current time is: 24-May 00:46

All times are UTC + 3



You cannot post new topics in this forum
You cannot reply to topics in this forum
You cannot edit your posts in this forum
You cannot delete your posts in this forum
You cannot vote in polls in this forum
You cannot attach files in this forum
You cannot download files in this forum