Шоугелз / Showgirls (1995) HDTVRip

Reply to topic
 
Author Message

Sherif ®

Gender: Male

Longevity: 2 months 29 days

Posts: 4

Post 23-Jan-2019 16:38

[Quote]

Шоугелз / Showgirls
Год выпуска: 1995
Жанр: Драма, эротика
Выпущено: Франция, США / Metro-Goldwyn-Mayer
Режиссер: Пол Верховен
В ролях: Элизабет Беркли, Кайл Маклахлан, Джина Гершон, Гленн Пламмер, Роберт Дави, Алан Рэчинс, Джина Равера, Лин Туччи, Грег Трэвис, Эл Рушио, Патрик Бристоу, Уильям Шокли, Мишель Джонстон, Рина Риффел, Мелисса Уильямс, Мелинда Сонгер, Джек МакГи, Бобби Филлипс, Данте МакКарти...
О фильме: Молодая длинноногая танцовщица Номи отчаянно пытается добиться успеха в Лас-Вегасе и проникнуть в блистающий мир ярких огней, блеска и света шоу — сцены. Чтобы удержаться «на плаву», она соглашается на единственно возможную работу — стриптиз, пока ей не удается вытянуть свой счастливый билет — познакомиться с королевой сцены Лас-Вегаса Кристал.
Используя свое влияние, Кристал устраивает Номи в свое шоу и вводит ее в истинный мир шоу-бизнеса Лас-Вегаса — мир случая, предательства и интриг, в котором сексуальность можно использовать как власть.

Качество: HDTVRip
Видео: 720x400 at 23.976 fps, XviD 67, ~1928 kbps, 0.279 bit/pixel
Аудио: AC3, 6 ch, ~448 kbps |Русский|
Продолжительность: 02:11:08
Перевод: Профессиональный (дублированный)
Cубтитры: нет

Скриншоты



Mediainfo

Общее
Полное имя : D:\Шоу-гёлз_(1995)_HDTVRIP.avi
Формат : AVI
Формат/Информация : Audio Video Interleave
Размер файла : 2,18 Гбайт
Продолжительность : 2 ч. 11 м.
Общий поток : 2383 Кбит/сек
Программа кодирования : VirtualDubModRus 1.5.10.2 (build 2542/release)
Библиотека кодирования : VirtualDubMod build 2542/release
Видео
Идентификатор : 0
Формат : MPEG-4 Visual
Профиль формата : Advanced Simple@L5
Параметр BVOP формата : 1
Параметр QPel формата : Нет
Параметр GMC формата : Без точки перехода
Параметр матрицы формата : Default (MPEG)
Идентификатор кодека : XVID
Идентификатор кодека/Подсказка : XviD
Продолжительность : 2 ч. 11 м.
Битрейт : 1928 Кбит/сек
Ширина : 720 пикселей
Высота : 400 пикселей
Соотношение сторон : 16:9
Частота кадров : 23,976 кадра/сек
Цветовое пространство : YUV
Субдискретизация насыщенности : 4:2:0
Битовая глубина : 8 бит
Тип развёртки : Прогрессивная
Метод сжатия : С потерями
Бит/(Пиксели*Кадры) : 0.279
Размер потока : 1,77 Гбайт (81%)
Библиотека кодирования : XviD 67
Аудио
Идентификатор : 1
Формат : AC-3
Формат/Информация : Audio Coding 3
Расширение режима : CM (complete main)
Параметр Endianness формата : Big
Идентификатор кодека : 2000
Продолжительность : 2 ч. 11 м.
Вид битрейта : Постоянный
Битрейт : 448 Кбит/сек
Каналы : 6 каналов
Расположение каналов : Front: L C R, Side: L R, LFE
Частота : 48,0 КГц
Битовая глубина : 16 бит
Метод сжатия : С потерями
Размер потока : 420 Мбайт (19%)
Выравнивание : Разделение по промежуткам
Продолжительность промежутка : 69 мс. (1,64 видеокадра)
Время предзагрузки промежутка : 548 мс.
[Profile] [PM]
Display posts:    
Reply to topic

Current time is: 21-Apr 15:28

All times are UTC + 3



You cannot post new topics in this forum
You cannot reply to topics in this forum
You cannot edit your posts in this forum
You cannot delete your posts in this forum
You cannot vote in polls in this forum
You cannot attach files in this forum
You cannot download files in this forum