Вечеринка только начинается / The Party's Just Beginning (2018) WEB-DL 1080p

Reply to topic
 
Author Message

Monk ®

Gender: Male

Longevity: 11 months 8 days

Posts: 9042

Location: Казань

Post 03-Feb-2019 12:24

[Quote]

Вечеринка только начинается / The Party's Just Beginning Год выпуска: 2018
Жанр: Драма, комедия
Выпущено: США, Mt. Hollywood Films, Synchronicity Films
Режиссер: Карен Гиллан
В ролях: Карен Гиллан, Ли Пейс, Пол Хиггинс, Мэттью Бирд, Шиван Редмонд, Джэми Куинн, Лесли Харкорт, Рэйчел Джексон, Мэтью Заяц, Пол Тинто
О фильме: Девушка ночью идет по городу одна. Сначала - бар, алкоголь, агрессивный как-бы-караоке, буйный танец, потом - интенсивный секс с незнакомцем на заднем дворе и жадно съеденная картошка из фаст-фуда; ничего, о чём стоит помнить на следующее утро. Память терзает другое: самоубийство лучшего друга-гея Алистера, спрыгнувшего с железнодорожного моста. И теперь каждый день и каждая ночь Люси превращается в лихорадочный поиск равновесия.

Качество: WEB-DL 1080p
Видео: MPEG-4 AVC, 4796 Кбит/с, 1920x816
Аудио: Русский (АAC, 2 ch, ~190 Кбит/с), (AC3, 6 ch, 384 Кбит/с), английский (Е-AC3, 6 ch, 640 Кбит/с)
Продолжительность: 01:31:16
Перевод: Профессиональный многоголосый [HDRezka Studio], любительский двухголосый [HiWayGrope]
Субтитры: Русские, английские

Скриншоты



MediaInfo

General
Unique ID : 274605460549756980944950117262737685483 (0xCE97168301B2415B9CB685994DB23BEB)
Complete name : G:\ФИЛЬМЫ\RuTRACKER\The.Partys.Just.Beginning.2018.WEB-DL.1080p.mkv
Format : Matroska
Format version : Version 4 / Version 2
File size : 3.84 GiB
Duration : 1 h 31 min
Overall bit rate : 6 017 kb/s
Encoded date : UTC 2019-07-11 16:15:52
Writing application : mkvmerge v20.0.0 ('I Am The Sun') 64-bit
Writing library : libebml v1.3.5 + libmatroska v1.4.8
Video
ID : 1
Format : AVC
Format/Info : Advanced Video Codec
Format profile : High@L4
Format settings : CABAC / 4 Ref Frames
Format settings, CABAC : Yes
Format settings, RefFrames : 4 frames
Codec ID : V_MPEG4/ISO/AVC
Duration : 1 h 31 min
Bit rate : 4 796 kb/s
Width : 1 920 pixels
Height : 816 pixels
Display aspect ratio : 2.35:1
Frame rate mode : Constant
Frame rate : 23.976 (24000/1001) FPS
Color space : YUV
Chroma subsampling : 4:2:0
Bit depth : 8 bits
Scan type : Progressive
Bits/(Pixel*Frame) : 0.128
Stream size : 3.06 GiB (80%)
Language : English
Default : Yes
Forced : No
Color range : Limited
Color primaries : BT.709
Transfer characteristics : BT.709
Matrix coefficients : BT.709
Audio #1
ID : 2
Format : AAC
Format/Info : Advanced Audio Codec
Format profile : LC
Codec ID : A_AAC-2
Duration : 1 h 31 min
Bit rate : 192 kb/s
Channel(s) : 2 channels
Channel positions : Front: L R
Sampling rate : 48.0 kHz
Frame rate : 46.875 FPS (1024 SPF)
Compression mode : Lossy
Stream size : 127 MiB (3%)
Title : MVO HDRezka Studio
Language : Russian
Default : Yes
Forced : No
Audio #2
ID : 3
Format : AC-3
Format/Info : Audio Coding 3
Codec ID : A_AC3
Duration : 1 h 31 min
Bit rate mode : Constant
Bit rate : 384 kb/s
Channel(s) : 6 channels
Channel positions : Front: L C R, Side: L R, LFE
Sampling rate : 48.0 kHz
Frame rate : 31.250 FPS (1536 SPF)
Bit depth : 16 bits
Compression mode : Lossy
Stream size : 251 MiB (6%)
Title : DVO HiWayGrope
Language : Russian
Service kind : Complete Main
Default : No
Forced : No
Audio #3
ID : 4
Format : E-AC-3
Format/Info : Enhanced Audio Coding 3
Codec ID : A_EAC3
Duration : 1 h 31 min
Bit rate mode : Constant
Bit rate : 640 kb/s
Channel(s) : 6 channels
Channel positions : Front: L C R, Side: L R, LFE
Sampling rate : 48.0 kHz
Frame rate : 187.500 FPS (256 SPF)
Compression mode : Lossy
Stream size : 418 MiB (11%)
Language : English
Service kind : Complete Main
Default : No
Forced : No
Text #1
ID : 5
Format : UTF-8
Codec ID : S_TEXT/UTF8
Codec ID/Info : UTF-8 Plain Text
Duration : 1 h 26 min
Bit rate : 63 b/s
Count of elements : 890
Stream size : 39.9 KiB (0%)
Title : PhysKids
Language : Russian
Default : No
Forced : No
Text #2
ID : 6
Format : UTF-8
Codec ID : S_TEXT/UTF8
Codec ID/Info : UTF-8 Plain Text
Duration : 1 h 25 min
Bit rate : 38 b/s
Count of elements : 889
Stream size : 24.4 KiB (0%)
Language : English
Default : No
Forced : No
[Profile] [PM]
Display posts:    
Reply to topic

Current time is: 23-Oct 08:48

All times are UTC + 3



You cannot post new topics in this forum
You cannot reply to topics in this forum
You cannot edit your posts in this forum
You cannot delete your posts in this forum
You cannot vote in polls in this forum
You cannot attach files in this forum
You cannot download files in this forum