Ученик (2016) WEBRip от Files-x | Версия без цензуры

Reply to topic
 
Author Message

papa1951deda ®

Gender: Male

Longevity: 9 months 3 days

Posts: 277

Location: Казахстан

Post 03-Feb-2019 22:00

[Quote]

Ученик Год выпуска: 2016
Жанр: Драма
Выпущено: Россия, Hype Film
Режиссёр: Кирилл Серебренников
В ролях: Виктория Исакова, Пётр Скворцов, Александр Горчилин, Юлия Ауг, Александра Ревенко, Антон Васильев, Николай Рощин, Светлана Брагарник, Ирина Рудницкая, Марина Клещева
О фильме: Фильм снят по пьесе Мариуса фон Майенбурга "Учитель", действие которой режиссёром фильма перенесено в российскую действительность. Мир устроен неправильно. Мир погряз во зле. Много лжи, вранья, лицемерия. Добродетель поругана. Вера утрачена. Главный герой, мальчик Вениамин, считает, что знает все о моральных нормах. Как их надо соблюдать, от кого их надо защищать, что такое хорошо и что такое плохо. Его поведение для окружающих становится серьезным испытанием. Да и сам Веня не имеет и капли любви, всё более ожесточаясь и нарушая заповеди, не прикладывая усилий для совершенствования себя. Где граница между моралью и нетерпимостью, свободой и вседозволенностью, проповедью и терроризмом, религией и манипуляцией?
Качество: WEBRip
Видео:XviD, ~ 1576 Кбит/с, 720x272, 25 кадр/с
Аудио: AC3, 2 ch, 192 Кбит/с
Продолжительность: 01:57:44
Перевод: Не требуется
Субтитры: Нет

MediaInfo

General
Complete name : C:\Users\user\Downloads\Video\The.Student.(2016).WEBRip.Files-x.avi
Format : AVI
Format/Info : Audio Video Interleave
File size : 1.46 GiB
Duration : 1h 57mn
Overall bit rate : 1 778 Kbps
Writing application : VirtualDubMod 1.5.10.3 | www.virtualdub-fr.org || (build 2550/release)
Writing library : VirtualDubMod build 2550/release
Video
ID : 0
Format : MPEG-4 Visual
Format profile : Advanced Simple@L5
Format settings, BVOP : 1
Format settings, QPel : No
Format settings, GMC : No warppoints
Format settings, Matrix : Custom
Codec ID : XVID
Codec ID/Hint : XviD
Duration : 1h 57mn
Bit rate : 1 576 Kbps
Width : 720 pixels
Height : 272 pixels
Display aspect ratio : 2.647
Frame rate : 24.000 fps
Color space : YUV
Chroma subsampling : 4:2:0
Bit depth : 8 bits
Scan type : Progressive
Compression mode : Lossy
Bits/(Pixel*Frame) : 0.335
Stream size : 1.30 GiB (89%)
Writing library : XviD 73
Audio
ID : 1
Format : AC-3
Format/Info : Audio Coding 3
Mode extension : CM (complete main)
Codec ID : 2000
Duration : 1h 57mn
Bit rate mode : Constant
Bit rate : 192 Kbps
Channel(s) : 2 channels
Channel positions : Front: L R
Sampling rate : 48.0 KHz
Bit depth : 16 bits
Compression mode : Lossy
Stream size : 162 MiB (11%)
Alignment : Split accross interleaves
Interleave, duration : 42 ms (1.00 video frame)
Interleave, preload duration : 500 ms

Скриншоты


Релиз от:
[Profile] [PM]
Display posts:    
Reply to topic

Current time is: 24-Aug 06:52

All times are UTC + 3



You cannot post new topics in this forum
You cannot reply to topics in this forum
You cannot edit your posts in this forum
You cannot delete your posts in this forum
You cannot vote in polls in this forum
You cannot attach files in this forum
You cannot download files in this forum