Половое воспитание / Сексуальное просвещение / Всё о сексе / Sex Education [1 сезон: 1-8 серии из 8] (2019) WEBRip от Generalfilm | КПК | BTI Studio

Reply to topic
 
Author Message

mjjhec ®

Gender: Male

Longevity: 9 months 7 days

Posts: 304

Location: СССР

Post 08-Feb-2019 22:04

[Quote]

Половое воспитание
Год выпуска: 2019
Жанр: Драма, комедия
Выпущено: США, Великобритания, Netflix, Eleven Films
Режиссер: Кейт Херрон, Бен Тэйлор
В ролях: Джиллиан Андерсон, Эйса Баттерфилд, Эмма Маккей, Нкути Гатуа, Шанель Кулар, Алистэр Петри, Коннор Суинделлс, Александр Вествуд, Кедар Уильямс-Стирлинг, Мими Кин, Таня Рейнольдс, Патриция Эллисон, Симон Эшли.
О фильме: Сериал расскажет о неловком шестнадцатилетнем парне по имени Отис (Эйса Баттерфилд). Его мама (Джиллиан Андерсон) работает секс-терапевтом. Поэтому юноша, несмотря на свою необщительность с противоположным полом, неплохо разбирается в физиологии и психологии. Однажды, объединившись со своей одноклассницей - остроумной «плохой девочкой» Мэйв, Отис решает открыть в школе подпольные курсы сексуального воспитания, чтобы помочь одноклассникам справиться с переживаниями и сложностями переходного возраста. А заодно – подзаработать немного денег. Правда, довольно быстро юноша понимает, что ему самому не помешала бы профессиональная помощь в этих вопросах.
Качество: WEBRip | КПК
Видео: Н.264, 640x320 (2.000), 25 fps, 400 Kbps
Аудио: AAC LC, 48 KHz, 2 ch, 128 Kbps
Продолжительность: 8 х ~00:52:00
Перевод: Профессиональный (многоголосый, закадровый) [BTI Studio по заказу Netflix]

Скриншоты

MediaInfo

General
Complete name : F:\Rip\Polovoe.vospitanije.by.mjjhec\Sex.Education.s01e03.mp4
Format : MPEG-4
Format profile : Base Media
Codec ID : isom (isom/avc1/iso6)
File size : 192 MiB
Duration : 50 min 34 s
Overall bit rate mode : Variable
Overall bit rate : 531 kb/s
Encoded date : UTC 2019-02-08 10:55:02
Tagged date : UTC 2019-02-08 10:55:02
Video
ID : 1
Format : AVC
Format/Info : Advanced Video Codec
Format profile : High@L4.1
Format settings : CABAC / 10 Ref Frames
Format settings, CABAC : Yes
Format settings, ReFrames : 10 frames
Codec ID : avc1
Codec ID/Info : Advanced Video Coding
Duration : 50 min 34 s
Bit rate : 400 kb/s
Maximum bit rate : 1 839 kb/s
Width : 640 pixels
Height : 320 pixels
Display aspect ratio : 2.000
Frame rate mode : Constant
Frame rate : 25.000 FPS
Color space : YUV
Chroma subsampling : 4:2:0
Bit depth : 8 bits
Scan type : Progressive
Bits/(Pixel*Frame) : 0.078
Stream size : 145 MiB (75%)
Title : 264@GPAC0.5.2-DEV-rev248-g39d5978-master
Writing library : x264 core 146 r2538 121396c
Encoding settings : cabac=1 / ref=10 / deblock=1:-3:-3 / analyse=0x3:0x133 / me=umh / subme=11 / psy=1 / psy_rd=1.00:1.00 / mixed_ref=1 / me_range=48 / chroma_me=1 / trellis=2 / 8x8dct=1 / cqm=0 / deadzone=21,11 / fast_pskip=1 / chroma_qp_offset=-4 / threads=6 / lookahead_threads=1 / sliced_threads=0 / nr=0 / decimate=0 / interlaced=0 / bluray_compat=0 / constrained_intra=0 / bframes=10 / b_pyramid=2 / b_adapt=2 / b_bias=0 / direct=3 / weightb=1 / open_gop=0 / weightp=2 / keyint=240 / keyint_min=24 / scenecut=40 / intra_refresh=0 / rc_lookahead=60 / rc=2pass / mbtree=0 / bitrate=400 / ratetol=1.0 / qcomp=0.60 / qpmin=0 / qpmax=69 / qpstep=4 / cplxblur=20.0 / qblur=0.5 / vbv_maxrate=14000 / vbv_bufsize=14000 / nal_hrd=none / filler=0 / ip_ratio=1.40 / pb_ratio=1.30 / aq=1:1.00
Encoded date : UTC 2019-02-08 10:55:02
Tagged date : UTC 2019-02-08 10:55:06
Codec configuration box : avcC
Audio
ID : 2
Format : AAC LC
Format/Info : Advanced Audio Codec Low Complexity
Codec ID : mp4a-40-2
Duration : 50 min 34 s
Bit rate mode : Variable
Bit rate : 128 kb/s
Maximum bit rate : 134 kb/s
Channel(s) : 2 channels
Channel layout : L R
Sampling rate : 48.0 kHz
Frame rate : 46.875 FPS (1024 SPF)
Compression mode : Lossy
Stream size : 46.3 MiB (24%)
Encoded date : UTC 2019-02-08 10:06:21
Tagged date : UTC 2019-02-08 10:55:06
Релиз от:
[Profile] [PM]
Display posts:    
Reply to topic

Current time is: 24-Aug 05:33

All times are UTC + 3



You cannot post new topics in this forum
You cannot reply to topics in this forum
You cannot edit your posts in this forum
You cannot delete your posts in this forum
You cannot vote in polls in this forum
You cannot attach files in this forum
You cannot download files in this forum