Правила заполнения шаблона

Topic locked
 
Author Message

Серый1779 ®

Gender: Male

Longevity: 11 months 8 days

Posts: 630

Location: Украина

Post 09-Feb-2019 19:10

[Quote]

Правила заполнения шаблона.--1. Общий вид:
Шапка темы: Русское название / Оригинальное название [Какой сезон С какой и по какую серию из скольких] (Год выпуска) Качество | Тип/ы озвучки
Название на русском / Название на оригинале (в случае с российскими сериалами, фильмами, пункт - название на оригинале - не корректен)
Постер: (постер в раздаче обязателен, размер постера не должен превышать размеры 500х500 пикселей, минимальный размер 200х200 пикселей, оптимальный размер 350х500 пикселей)
Год выпуска: (год выхода на экраны)
Жанр: (согласно кинопоиску)
Выпущено: (если несколько стран - указываем все, указываем кинокомпанию (ОБЯЗАТЕЛЬНО!))
Режиссёр: (Если несколько, то в строчку, через пробел и запятую)
В ролях: (в строчку, через пробел и запятую)
О фильме: (описание должно быть на русском языке, включая релизы фильмов на иностранном языке, описание должно быть кратким и не может являться рецензией на фильм, инфу можно найти на кинопоиске например)
2. Тех. Данные:
Качество: (пример: HDRip, WEB DLRip, TVRip, DVDRip, HDTVRip, BDRip-AVC, WEBRip-AVC и т.д., так же в качестве помечается расширение экрана 720р, 1080р, если у серий разное качество, указываем все виды качества - через пробел и запятую)
Видео: (Кодек, битрейт - kbps, расширение кадра, частота - fps пример: XviD, 1850 Кбит/с, 720x400, 25 кадр/с)
Аудио: (Кодек, количество каналов, битрейт - kbps пример: AC3, 2 ch, 192 Кбит/с)
Продолжительность: (00:00:00 - в таком виде пример: 4 x ~ 00:45:00)
Перевод: (дублированный, профессиональный многоголосый, двухголосый, любительский многоголосый, двухголосый, одноголосый, авторский перевод - обязательно указываем чей перевод, если нет инфы, то пишем - не определен, заменять информацию о том чей перевод полностью на логотип студии запрещено, только буквенно подтвердив!)
Субтитры: (указываем наличие субтитров - русские, английские и т.д., форсированные или полные, если не отключаемые так же помечаем, если нет субтитров, то в графе пишем: Нет)
Наличие/отсутствие сторонней рекламы: (Выбираем: Да или Нет)
Наличие/отсутствие ненормативной лексики: (Выбираем: Да или Нет)
3. Дополнительная информация:
Скриншоты: (к одной раздаче необходимо разместить минимум 4 скриншота и не более 6!, скриншоты должны быть сделаны с оригинального, раздаваемового Вами файла, должны соответствовать размеру кадра раздаваемого видео файла, на скриншотах не должно быть упоминания ни каких сторонних интернет ресурсов, если в сериале имеются серии разного расширения, то скриншоты должны отображать каждое расширение, скриншоты прячутся в подписанный спойлер, размещаются на разрешенных хостингах и скриншоты нужно выложить в своей раздаче в виде ПРЕВЬЮ.
MediaInfo: - MediaInfo (MediaInfo - полная техническая информация по файлу, вставляется в подписанный спойлер, если в сериале во всех сериях одинаковые основные тех. данные, то MI делается с одной любой серии)
Семпл: (семпл в релиз добавляется по желанию, либо по просьбе Модераторов и Администраторов)
Релиз от: (Либо прописывается название релиз группы либо помещается баннер релиз группы)--

Пример правильно заполненного шаблона

Воронины Год выпуска: 2018
Жанр: Семейный, комедия
Выпущено: Россия, «ГудСториМедиа», «Леан-М», СТС
Режиссер: Александр Жигалкин
В ролях: Георгий Дронов, Екатерина Волкова (II), Анна Фроловцева, Борис Клюев, Станислав Дужников, Юлия Куварзина, Мария Ильюхина, Кирилл Михин, Филипп Михин, Людмила Дмитриева, Андрей Ургант, Татьяна Орлова
О фильме: В новых сериях в многодетной семье Кости и Веры Ворониных появляется четвертый ребенок. Теперь, кроме старшей дочки Маши, близнецов Кири и Фили, они воспитывают новорожденную Люсю. Ворониных станет еще больше, а значит - в семье прибавится хлопот. В премьерных сериях приключения любимых персонажей Кости, Веры, Лени, Насти, Галины Ивановны и Николая Петровича не ограничатся пределами их квартир. Создатели придумали еще больше ситуаций, когда мужчины Воронины встают с дивана и отправляются на интересные прогулки. Сюрпризом для зрителей станет появление в проекте звезд в роли самих себя. Так, в одной из серий снялся известный певец, а теперь и телеведущий шоу СТС «Большая маленькая звезда» Николай Басков.
Качество: SATRip-AVC
Видео: MPEG-4 AVC, ~ 1500 Кбит/с, 720x400, 25 кадр/с
Аудио: AC3, 2 ch, 192 Кбит/с
Продолжительность: 10 x ~ 00:24:00
Перевод: Не требуется
Субтитры: нет

Скриншоты


MediaInfo

General
Unique ID : 207674547939895677127408232527367789148 (0x9C3CA9BE1154048E835200AF7A405A5C)
Complete name : F:\Voroniny.s23.(2018).SATRip.(AVC).Files-x\01.Voroniny.s23.(2018).SATRip.(AVC).by.Серый1779.Files-x.mkv
Format : Matroska
Format version : Version 2
File size : 286 MiB
Duration : 23 min 34 s
Overall bit rate : 1 693 kb/s
Encoded date : UTC 2019-02-04 15:35:46
Writing application : mkvmerge v7.8.0 ('River Man') 32bit built on Apr 3 2015 12:11:22
Writing library : libebml v1.3.1 + libmatroska v1.4.2
Video
ID : 1
Format : AVC
Format/Info : Advanced Video Codec
Format profile : High@L4.1
Format settings : CABAC / 9 Ref Frames
Format settings, CABAC : Yes
Format settings, RefFrames : 9 frames
Codec ID : V_MPEG4/ISO/AVC
Duration : 23 min 34 s
Bit rate : 1 500 kb/s
Width : 720 pixels
Height : 400 pixels
Display aspect ratio : 16:9
Frame rate mode : Constant
Frame rate : 25.000 FPS
Color space : YUV
Chroma subsampling : 4:2:0
Bit depth : 8 bits
Scan type : Progressive
Bits/(Pixel*Frame) : 0.208
Stream size : 247 MiB (87%)
Writing library : x264 core 146 r2538 121396c
Encoding settings : cabac=1 / ref=9 / deblock=1:-3:-3 / analyse=0x3:0x133 / me=umh / subme=9 / psy=1 / psy_rd=1.00:0.15 / mixed_ref=1 / me_range=32 / chroma_me=1 / trellis=2 / 8x8dct=1 / cqm=0 / deadzone=21,11 / fast_pskip=0 / chroma_qp_offset=-3 / threads=18 / lookahead_threads=3 / sliced_threads=0 / nr=0 / decimate=1 / interlaced=0 / bluray_compat=0 / constrained_intra=0 / bframes=9 / b_pyramid=2 / b_adapt=2 / b_bias=0 / direct=1 / weightb=1 / open_gop=0 / weightp=2 / keyint=250 / keyint_min=25 / scenecut=40 / intra_refresh=0 / rc=2pass / mbtree=0 / bitrate=1500 / ratetol=1.0 / qcomp=0.60 / qpmin=0 / qpmax=69 / qpstep=4 / cplxblur=20.0 / qblur=0.5 / ip_ratio=1.40 / pb_ratio=1.30 / aq=2:1.00
Default : Yes
Forced : No
Color range : Limited
Color primaries : BT.601 PAL
Transfer characteristics : BT.470 System B, BT.470 System G
Matrix coefficients : BT.470 System B, BT.470 System G
Audio
ID : 2
Format : AC-3
Format/Info : Audio Coding 3
Format settings, Endianness : Big
Codec ID : A_AC3
Duration : 23 min 34 s
Bit rate mode : Constant
Bit rate : 192 kb/s
Channel(s) : 2 channels
Channel positions : Front: L R
Sampling rate : 48.0 kHz
Frame rate : 31.250 FPS (1536 SPF)
Bit depth : 16 bits
Compression mode : Lossy
Stream size : 32.4 MiB (11%)
Service kind : Complete Main
Default : Yes
Forced : No
Релиз от:
[Profile] [PM]
Display posts:    
Topic locked

Current time is: 21-Oct 13:00

All times are UTC + 3



You cannot post new topics in this forum
You cannot reply to topics in this forum
You cannot edit your posts in this forum
You cannot delete your posts in this forum
You cannot vote in polls in this forum
You cannot attach files in this forum
You cannot download files in this forum