Пекарь и красавица [1-17 серия из 17] (2018) WEB-DLRip-AVC от Files-x

Topic locked
 
Author Message

Серый1779 ®

Gender: Male

Longevity: 5 months 7 days

Posts: 385

Location: Украина

Post 11-Feb-2019 15:00

[Quote]

Пекарь и красавица Год выпуска: 2018
Жанр: Комедия
Выпущено: Россия, Art Pictures Vision, AVK Production
Режиссер: Фёдор Стуков
В ролях: Анна Чиповская, Никита Волков, Даниил Вахрушев, Джеймс Тратас, Алина Алексеева (II), Ленни Хейден, Евгения Дмитриева, Алексей Макаров, Артур Ваха, Арарат Кещян, Алексей Розин, Вячеслав Манучаров, Екатерина Воронина (II), Надежда Игошина, Юлия Сулес, Евгения Ахременко, Ольга Веникова
О фильме: Пекарь из Малаховки случайно встречает суперзвезду Сашу Ларину в туалете ресторана. Простой парень Андрей и не подозревает, что это случайное знакомство изменит его жизнь. Впереди у Андрея полеты в Лондон, вечеринки в стиле «Великого Гэтсби», вспышки фотокамер и вездесущие папарацци. Все бы ничего, но у молодых людей уже есть вторые половинки, которые готовы на все, чтобы вернуть себе своих возлюбленных…
Качество: WEB-DLRip-AVC
Видео: MPEG-4 AVC, ~ 1600 Кбит/с, 1024x576, 25 кадр/с
Аудио: AC3, 2 ch, 192 Кбит/с
Продолжительность: 17 х~ 00:25:00
Перевод: Не требуется
Cубтитры: нет

Скриншоты


MediaInfo

General
Unique ID : 251518423772175788628790691527698971965 (0xBD38AFB74E905DD2A7BD46A1A8387D3D)
Complete name : F:\Pekar i krasavitsa.(2018).WEB-DLRip.(AVC).Files-x\01.Pekar.i.krasavitsa.(2018).WEB-DLRip.(AVC).by.Серый1779.Files-x.mkv
Format : Matroska
Format version : Version 2
File size : 298 MiB
Duration : 23 min 17 s
Overall bit rate : 1 792 kb/s
Encoded date : UTC 2019-02-11 10:56:21
Writing application : mkvmerge v7.8.0 ('River Man') 32bit built on Apr 3 2015 12:11:22
Writing library : libebml v1.3.1 + libmatroska v1.4.2
Video
ID : 1
Format : AVC
Format/Info : Advanced Video Codec
Format profile : High@L4.1
Format settings : CABAC / 9 Ref Frames
Format settings, CABAC : Yes
Format settings, RefFrames : 9 frames
Codec ID : V_MPEG4/ISO/AVC
Duration : 23 min 17 s
Bit rate : 1 600 kb/s
Width : 1 024 pixels
Height : 576 pixels
Display aspect ratio : 16:9
Frame rate mode : Constant
Frame rate : 25.000 FPS
Color space : YUV
Chroma subsampling : 4:2:0
Bit depth : 8 bits
Scan type : Progressive
Bits/(Pixel*Frame) : 0.109
Stream size : 261 MiB (87%)
Writing library : x264 core 146 r2538 121396c
Encoding settings : cabac=1 / ref=9 / deblock=1:-2:-1 / analyse=0x3:0x133 / me=umh / subme=9 / psy=1 / psy_rd=1.00:0.15 / mixed_ref=1 / me_range=32 / chroma_me=1 / trellis=2 / 8x8dct=1 / cqm=0 / deadzone=21,11 / fast_pskip=0 / chroma_qp_offset=-3 / threads=18 / lookahead_threads=3 / sliced_threads=0 / nr=0 / decimate=1 / interlaced=0 / bluray_compat=0 / constrained_intra=0 / bframes=9 / b_pyramid=2 / b_adapt=2 / b_bias=0 / direct=1 / weightb=1 / open_gop=0 / weightp=2 / keyint=250 / keyint_min=25 / scenecut=40 / intra_refresh=0 / rc=2pass / mbtree=0 / bitrate=1600 / ratetol=1.0 / qcomp=0.60 / qpmin=0 / qpmax=69 / qpstep=4 / cplxblur=20.0 / qblur=0.5 / ip_ratio=1.40 / pb_ratio=1.30 / aq=2:1.00
Default : Yes
Forced : No
Color range : Limited
Color primaries : BT.709
Transfer characteristics : BT.709
Matrix coefficients : BT.709
Audio
ID : 2
Format : AC-3
Format/Info : Audio Coding 3
Format settings, Endianness : Big
Codec ID : A_AC3
Duration : 23 min 17 s
Bit rate mode : Constant
Bit rate : 192 kb/s
Channel(s) : 2 channels
Channel positions : Front: L R
Sampling rate : 48.0 kHz
Frame rate : 31.250 FPS (1536 SPF)
Bit depth : 16 bits
Compression mode : Lossy
Stream size : 32.0 MiB (11%)
Service kind : Complete Main
Default : Yes
Forced : No
Релиз от:
[Profile] [PM]
Display posts:    
Topic locked

Current time is: 20-Apr 07:28

All times are UTC + 3



You cannot post new topics in this forum
You cannot reply to topics in this forum
You cannot edit your posts in this forum
You cannot delete your posts in this forum
You cannot vote in polls in this forum
You cannot attach files in this forum
You cannot download files in this forum