Мухтар. Новый след [12 сезон: 101-192 серии] (2016-2018) WEBRip-AVC от Files-х

Reply to topic
 
Author Message

Серый1779 ®

Gender: Male

Longevity: 10 months 8 days

Posts: 561

Location: Украина

Post 25-Feb-2019 18:59

[Quote]

Мухтар. Новый след Год выпуска: 2016-2018
Жанр: Детектив, криминал, приключения
Выпущено: Россия, Студия «2B» по заказу «НТВ»
Режиссер: Наталия Микрюкова
В ролях: Владимир Фекленко, Алексей Моисеев, Светлана Брюханова, Надежда Анципович, Евгений Токарев, Екатерина Вежновец, Александра Кривошей, Оксана Сташенко
О фильме: Главные герои сериала — оперативники Максим Жаров, Алексей Самойлов и следователь Екатерина Калитина, а также их верный четвероногий помощник — пес Мухтар. Вся бравая команда ежедневно раскрывает преступления самого разного рода: от мелокого мошенничества до громкого ограбления. За долгите годы службы эти ребята научились работать, как единый слаженный механизм. В новых сериях к команде сотрудников ОВД присоединятся эксперт-криминалист Надежда Кострова и судмедэксперт Антон Лакушев. Всем вместе им предстоит разобраться в запутанном деле об отравлении животных в одном из конных клубов столицы.
Качество: WEBRip-AVC
Видео: MPEG-4 AVC, ~ 2000 Кбит/с, 1024x576, 25 кадр/с
Аудио: AC3, 2 ch, 192 Кбит/с
Продолжительность: 92 х ~ 00:45:00
Перевод: Не требуется
Субтитры: нет

Скриншоты


MediaInfo

General
Unique ID : 228005527335353299892950558070460709277 (0xAB88446B06CDA3738A9239A7FE80F99D)
Complete name : F:\01\Muchtar.novyj.sled.(2017).WEB-DLRip.(AVC).Files-x (101-200)\144.Muchtar.novyj.sled.(2017).WEB-DLRip.(AVC).by.Серый1779.Files-x.mkv
Format : Matroska
Format version : Version 2
File size : 687 MiB
Duration : 43 min 48 s
Overall bit rate : 2 193 kb/s
Encoded date : UTC 2018-11-01 10:10:06
Writing application : mkvmerge v7.8.0 ('River Man') 32bit built on Apr 3 2015 12:11:22
Writing library : libebml v1.3.1 + libmatroska v1.4.2
Video
ID : 1
Format : AVC
Format/Info : Advanced Video Codec
Format profile : High@L4.1
Format settings : CABAC / 9 Ref Frames
Format settings, CABAC : Yes
Format settings, RefFrames : 9 frames
Codec ID : V_MPEG4/ISO/AVC
Duration : 43 min 49 s
Bit rate : 2 000 kb/s
Width : 1 024 pixels
Height : 576 pixels
Display aspect ratio : 16:9
Frame rate mode : Constant
Frame rate : 25.000 FPS
Color space : YUV
Chroma subsampling : 4:2:0
Bit depth : 8 bits
Scan type : Progressive
Bits/(Pixel*Frame) : 0.136
Stream size : 613 MiB (89%)
Writing library : x264 core 146 r2538 121396c
Encoding settings : cabac=1 / ref=9 / deblock=1:-2:-1 / analyse=0x3:0x133 / me=umh / subme=9 / psy=1 / psy_rd=1.00:0.15 / mixed_ref=1 / me_range=32 / chroma_me=1 / trellis=2 / 8x8dct=1 / cqm=0 / deadzone=21,11 / fast_pskip=0 / chroma_qp_offset=-3 / threads=18 / lookahead_threads=3 / sliced_threads=0 / nr=0 / decimate=1 / interlaced=0 / bluray_compat=0 / constrained_intra=0 / bframes=9 / b_pyramid=2 / b_adapt=2 / b_bias=0 / direct=1 / weightb=1 / open_gop=0 / weightp=2 / keyint=250 / keyint_min=25 / scenecut=40 / intra_refresh=0 / rc=2pass / mbtree=0 / bitrate=2000 / ratetol=1.0 / qcomp=0.60 / qpmin=0 / qpmax=69 / qpstep=4 / cplxblur=20.0 / qblur=0.5 / ip_ratio=1.40 / pb_ratio=1.30 / aq=2:1.00
Default : Yes
Forced : No
Color range : Limited
Color primaries : BT.709
Transfer characteristics : BT.709
Matrix coefficients : BT.709
Audio
ID : 2
Format : AC-3
Format/Info : Audio Coding 3
Format settings, Endianness : Big
Codec ID : A_AC3
Duration : 43 min 48 s
Bit rate mode : Constant
Bit rate : 192 kb/s
Channel(s) : 2 channels
Channel positions : Front: L R
Sampling rate : 48.0 kHz
Frame rate : 31.250 FPS (1536 SPF)
Bit depth : 16 bits
Compression mode : Lossy
Stream size : 60.2 MiB (9%)
Service kind : Complete Main
Default : Yes
Forced : No
Релиз от:
[Profile] [PM]
Display posts:    
Reply to topic

Current time is: 21-Sep 01:29

All times are UTC + 3



You cannot post new topics in this forum
You cannot reply to topics in this forum
You cannot edit your posts in this forum
You cannot delete your posts in this forum
You cannot vote in polls in this forum
You cannot attach files in this forum
You cannot download files in this forum