Скажи правду [1-8 серия из 8] (2019) WEB-DLRip от Files-x

Ответить на тему
 
Автор Сообщение

bond74 ®

Пол: Мужской

Стаж: 4 месяца 7 дней

Сообщений: 267

Создавать темы 11-Мар-2019 08:49

[Цитировать]

Скажи правду Год выпуска: 2019
Жанр: Мелодрама
Выпущено: Россия, Star Media по заказу телеканала Россия 1
Режиссер: Андрей Эшпай мл.
В ролях: Виктория Исакова, Аглая Шиловская, Павел Трубинер, Гоша Куценко, Зоя Кайдановская, Алёна Бабенко, Игорь Гордин, Инга Оболдина, Евгения Симонова, Алексей Фатеев, Михаил Филиппов, Евгения Уралова, Полина Лазарева, Ирина Бякова, Анна Синякина, Максим КарушевСухарева
О фильме: Российская версия «Скажи правду» - адаптация формата «Доктор Фостер» (2015, Великобритания). После пятнадцати лет счастливой семейной жизни Ксения начинает подозревать своего мужа в измене. Мимолётная мысль постепенно перерастает в навязчивую идею, заставляя женщину провести собственное расследование. В поиске правды Ксения заходит так далеко, что ставит под угрозу свою карьеру и отношения со всеми, кто ей дорог. Но пути назад уже нет…
Качество: WEB-DLRip
Видео: XviD, ~ 1600 Кбит/с, 720x400, 25 кадр/с
Аудио: AC3, 2 ch, 192 Кбит/с
Продолжительность: 8 х ~ 00:50:00
Перевод: Не требуется
Субтитры: нет

Скриншоты

MediaInfo

General
Complete name : C:\00\6354\ Скажи Правду.(2019) .WEB-DLRip. Files-x\02. Скажи Правду.(2019) .WEB-DLRip. Files-x.avi
Format : AVI
Format/Info : Audio Video Interleave
File size : 601 MiB
Duration : 52mn 13s
Overall bit rate : 1 608 Kbps
Movie name : Skazhi.pravdu.e02.WEB-DLRip
Writing application : VirtualDubMod 1.5.10.3 | www.virtualdub-fr.org || (build 2550/release)
Original source form/Name : Movie
Video
ID : 0
Format : MPEG-4 Visual
Format profile : Advanced Simple@L5
Format settings, BVOP : 1
Format settings, QPel : No
Format settings, GMC : No warppoints
Format settings, Matrix : Default (MPEG)
Codec ID : XVID
Codec ID/Hint : XviD
Duration : 52mn 13s
Bit rate : 1 406 Kbps
Width : 720 pixels
Height : 400 pixels
Display aspect ratio : 16:9
Frame rate : 25.000 fps
Color space : YUV
Chroma subsampling : 4:2:0
Bit depth : 8 bits
Scan type : Progressive
Compression mode : Lossy
Bits/(Pixel*Frame) : 0.195
Stream size : 525 MiB (87%)
Writing library : XviD 73
Audio
ID : 1
Format : AC-3
Format/Info : Audio Coding 3
Mode extension : CM (complete main)
Codec ID : 2000
Duration : 52mn 13s
Bit rate mode : Constant
Bit rate : 192 Kbps
Channel(s) : 2 channels
Channel positions : Front: L R
Sampling rate : 48.0 KHz
Bit depth : 16 bits
Compression mode : Lossy
Stream size : 71.7 MiB (12%)
Alignment : Split accross interleaves
Interleave, duration : 40 ms (1.00 video frame)
Interleave, preload duration : 500 ms
Релиз от:

Релиз подготовлен R.G.Files-x

[Профиль] [ЛС]
Показать сообщения:    
Ответить на тему

Текущее время: 22-Мар 19:35

Часовой пояс: UTC + 3



Вы не можете начинать темы
Вы не можете отвечать на сообщения
Вы не можете редактировать свои сообщения
Вы не можете удалять свои сообщения
Вы не можете голосовать в опросах
Вы не можете прикреплять файлы к сообщениям
Вы не можете скачивать файлы