Шифр [1-16 серия из 16] (2019) WEBRip от Files-x

Reply to topic
 
Author Message

bond74 ®

Gender: Male

Longevity: 6 months 9 days

Posts: 442

Post 12-Mar-2019 02:53

[Quote]

Шифр Год выпуска: 2019
Жанр: Детектив
Выпущено: Россия, Sony Pictures Television, Леан-М
Режиссер: Вера Сторожева
В ролях: Марьяна Спивак, Елена Панова, Екатерина Вилкова, Яна Дюбуи, Сергей Пускепалис, Михаил Евланов, Олег Гаас, Светлана Колпакова, Николай Токарев, Дмитрий Мазуров, Виктор Конухин, Виталия Корниенко, Софья Хилькова, Максим Стоянов, Екатерина Лапига, Виктор Добронравов, Николай Качура, Алексей Колган, Нина Дворжецкая, Александра Урсуляк
О фильме: Москва, 1956 год. Четыре женщины, которых связывает военное прошлое: работа в спецотделе ГРУ, спустя 11 лет сходятся вновь, чтобы вести расследования и помогать следственным органам в особо запутанных делах. Обладая феноменальными аналитическими способностями, Ирина, Анна, Софья и Катерина, рискуют собой, а также благополучием собственных семей, чтобы выйти на след преступников, которые угрожают жизни простых людей и всей стране в целом.
Качество: WEBRip
Видео: XviD, ~ 1600 Кбит/с, 720x400, 25 кадр/с
Аудио: AC3, 2 ch, 192 Кбит/с
Продолжительность: 16 x ~ 00:48:00
Перевод: Не требуется
Субтитры: нет

Скриншоты

MediaInfo

General
Complete name : H:\fiiles x\Шифр (2019). WEB-DLRip. Files-x\01. Шифр (2019). WEB-DLRip. Files-x.avi
Format : AVI
Format/Info : Audio Video Interleave
File size : 628 MiB
Duration : 48mn 42s
Overall bit rate : 1 802 Kbps
Writing application : VirtualDubMod 1.5.10.3 | www.virtualdub-fr.org || (build 2550/release)
Writing library : VirtualDubMod build 2550/release
Video
ID : 0
Format : MPEG-4 Visual
Format profile : Advanced Simple@L5
Format settings, BVOP : 1
Format settings, QPel : No
Format settings, GMC : No warppoints
Format settings, Matrix : Custom
Codec ID : XVID
Codec ID/Hint : XviD
Duration : 48mn 42s
Bit rate : 1 600 Kbps
Width : 720 pixels
Height : 400 pixels
Display aspect ratio : 16:9
Frame rate : 25.000 fps
Color space : YUV
Chroma subsampling : 4:2:0
Bit depth : 8 bits
Scan type : Progressive
Compression mode : Lossy
Bits/(Pixel*Frame) : 0.222
Stream size : 557 MiB (89%)
Writing library : XviD 73
Audio
ID : 1
Format : AC-3
Format/Info : Audio Coding 3
Mode extension : CM (complete main)
Codec ID : 2000
Duration : 48mn 42s
Bit rate mode : Constant
Bit rate : 192 Kbps
Channel(s) : 2 channels
Channel positions : Front: L R
Sampling rate : 48.0 KHz
Bit depth : 16 bits
Compression mode : Lossy
Stream size : 66.9 MiB (11%)
Alignment : Split accross interleaves
Interleave, duration : 40 ms (1.00 video frame)
Interleave, preload duration : 500 ms
Релиз от:
[Profile] [PM]
Display posts:    
Reply to topic

Current time is: 24-May 00:55

All times are UTC + 3



You cannot post new topics in this forum
You cannot reply to topics in this forum
You cannot edit your posts in this forum
You cannot delete your posts in this forum
You cannot vote in polls in this forum
You cannot attach files in this forum
You cannot download files in this forum