Принц Пеории. Рождественское чудо лося / Prince of Peoria: A Christmas Moose Miracle (2018) WEB-DLRip

Reply to topic
 
Author Message

Monk ®

Gender: Male

Longevity: 6 months 9 days

Posts: 6383

Location: Казань

Post 15-Mar-2019 13:02

[Quote]

Принц Пеории. Рождественское чудо лося / Prince of Peoria: A Christmas Moose Miracle Год выпуска: 2018
Жанр: Комедия, семейный
Выпущено: США, Netflix
Режиссер: Джон Розенбаум
В ролях: Гэвин Льюис, Синтия Маквильямс, Теодор Барнс, Марти Донован, Лю Чи, Линс Гелфан
О фильме: История о богатом принце, который едет в США, чтобы жить как студент по обмену. Живя в анонимности, принц завязывает дружеские отношения с парнем, по имени Тэдди. Специальный рождественский эпизод сериала.
Качество: WEB-DLRip
Видео: XviD, 2000 Кбит/с, 720x400, 23.976 Кадр/с
Аудио: Русский (AC3, 6 ch, 384 Кбит/с)
Продолжительность: 00:29:12
Перевод: Дублированный

Скриншоты



MediaInfo

Общее
Полное имя : Prince.of.Peoria.A.Christmas.Moose.Miracle.2018.WEB-DLRip.avi
Формат : AVI
Формат/Информация : Audio Video Interleave
Размер файла : 500 Мбайт
Продолжительность : 29 м. 12 с.
Общий поток : 2393 Кбит/сек
Программа кодирования : VirtualDubMod 1.5.10.2 (build 2540/release)
Библиотека кодирования : VirtualDubMod build 2540/release
Видео
Идентификатор : 0
Формат : MPEG-4 Visual
Профиль формата : Advanced Simple@L5
Настройки формата : BVOP1 / Custom Matrix
Параметр BVOP формата : 1
Параметр QPel формата : Нет
Параметр GMC формата : Без точки перехода
Параметр матрицы формата : Выборочная
Идентификатор кодека : XVID
Идентификатор кодека/Подсказка : XviD
Продолжительность : 29 м. 12 с.
Битрейт : 2000 Кбит/сек
Ширина : 720 пикселей
Высота : 400 пикселей
Соотношение сторон : 16:9
Частота кадров : 23,976 (24000/1001) кадра/сек
Цветовое пространство : YUV
Субдискретизация насыщенности : 4:2:0
Битовая глубина : 8 бит
Тип развёртки : Прогрессивная
Метод сжатия : С потерями
Бит/(Пиксели*Кадры) : 0.290
Размер потока : 418 Мбайт (84%)
Библиотека кодирования : XviD 65
Аудио
Идентификатор : 1
Формат : AC-3
Формат/Информация : Audio Coding 3
Коммерческое название : Dolby Digital
Идентификатор кодека : 2000
Продолжительность : 29 м. 12 с.
Вид битрейта : Постоянный
Битрейт : 384 Кбит/сек
Каналы : 6 каналов
Channel layout : L R C LFE Ls Rs
Частота : 48,0 КГц
Частота кадров : 31,250 кадров/сек (1536 SPF)
Битовая глубина : 16 бит
Метод сжатия : С потерями
Размер потока : 80,2 Мбайт (16%)
Выравнивание : Разделение по промежуткам
Продолжительность промежутка : 42 мс. (1,00 видеокадр)
Время предзагрузки промежутка : 500 мс.
ServiceKind/String : Complete Main
[Profile] [PM]
Display posts:    
Reply to topic

Current time is: 23-May 23:58

All times are UTC + 3



You cannot post new topics in this forum
You cannot reply to topics in this forum
You cannot edit your posts in this forum
You cannot delete your posts in this forum
You cannot vote in polls in this forum
You cannot attach files in this forum
You cannot download files in this forum