Добрая ведьма (Хорошая ведьма) / Chakhanmanyeojeon [1 сезон: 1-20 серии из 20] (2018) HDTVRip 720p | Asian Miracle Group

Reply to topic
 
Author Message

Monk ®

Gender: Male

Longevity: 6 months 9 days

Posts: 6383

Location: Казань

Post 15-Mar-2019 13:48

[Quote]

Добрая ведьма (Хорошая ведьма) / Chakhanmanyeojeon Год выпуска: 2018
Жанр: Романтика, драма, комедия, дорама
Выпущено: Южная Корея, SBS
Режиссер: Се Ган О
В ролях: Да Хэ Ли, Су Ён Рю, Су Бин Пэ, У Ён Ан, Се А Юн, Док Хва Ли, Хан Со Ли, Хён Так Сим, Хе Чжон Шин, Соль Бин Ан, Бо Ра Гым, Ён Гон Ким
О фильме: Обычная женщина Сун Хи, которая все свое время посвящает ведению домашнего хозяйства, не имеет никакого представления о работе своей сестры-близняшки. Она, конечно, знает, что До Хи-бортпроводница, однако сама никогда не пробовала справиться с такими служебными обязанностями, пока однажды ей не пришлось неожиданно занять место сестры на ее работе. Сун и До имеют абсолютно одинаковую внешность, но совершенно различные характеры. После того, как родная сестренка попала в неприятность, Сун Хи придется выдать себя за стюардессу и познакомиться с экипажем воздушного судна…
Качество: HDTVRip 720p
Видео: MPEG-4 AVC, ~ 2800 Кбит/с, 1280x720
Аудио: Русский (MP3, 2 ch, 192 Кбит/с)
Продолжительность: 20 х ~ 01:00:00
Перевод: Любительский одноголосый [Asian Miracle Group]

Скриншоты


MediaInfo

Format : AVI
Format/Info : Audio Video Interleave
File size : 1.18 GiB
Duration : 55mn 25s
Overall bit rate : 3 039 Kbps
Writing application : VirtualDubMod 1.5.10.2 (build 2542/release)
Writing library : VirtualDubMod build 2542/release
Video
ID : 0
Format : AVC
Format/Info : Advanced Video Codec
Format profile : High@L3.1
Format settings, CABAC : Yes
Format settings, ReFrames : 4 frames
Codec ID : H264
Duration : 55mn 25s
Bit rate : 2 850 Kbps
Width : 1 280 pixels
Height : 720 pixels
Display aspect ratio : 16:9
Frame rate mode : Variable
Frame rate : 29.970 fps
Color space : YUV
Chroma subsampling : 4:2:0
Bit depth : 8 bits
Scan type : Progressive
Bits/(Pixel*Frame) : 0.103
Stream size : 1.10 GiB (93%)
Writing library : x264 core 144 r2533 c8a773e
Audio
ID : 1
Format : MPEG Audio
Format version : Version 1
Format profile : Layer 3
Mode : Joint stereo
Mode extension : MS Stereo
Codec ID : 55
Codec ID/Hint : MP3
Duration : 55mn 25s
Bit rate mode : Constant
Bit rate : 192 Kbps
Channel(s) : 2 channels
Sampling rate : 44.1 KHz
Compression mode : Lossy
Stream size : 76.1 MiB (6%)
Alignment : Split accross interleaves
Interleave, duration : 33 ms (1.00 video frame)
Interleave, preload duration : 500 ms
Writing library : LAME3.99.5
[Profile] [PM]
Display posts:    
Reply to topic

Current time is: 24-May 00:43

All times are UTC + 3



You cannot post new topics in this forum
You cannot reply to topics in this forum
You cannot edit your posts in this forum
You cannot delete your posts in this forum
You cannot vote in polls in this forum
You cannot attach files in this forum
You cannot download files in this forum