Discovery. Гигантские хабы / Giant Hubs [1-6 серии из 6] (2018) HDTVRip от GeneralFilm

Reply to topic
 
Author Message

Starik60 ®

Gender: Male

Longevity: 11 months 10 days

Posts: 171

Location: Москва, Россия

Post 16-Mar-2019 12:57

[Quote]

Гигантские хабы / Giant Hubs
Год выпуска: 2018
Жанр: Документальный, транспорт, обозрение
Выпущено: Германия, Discovery Communications, LLC.
О фильме: Почти каждое путешествие начинается с вокзала или аэропорта. И их посещение само по себе может превратиться в настоящее приключение! Приглашаем вас в крупнейшие пассажирские и грузовые хабы в мире, которые круглый год работают в режиме 24/7! Как наладить работу аэропорта так, чтобы каждый день тысячи пассажиров вовремя вылетали в нужном направлении? Каким образом миллионы тонн грузов попадают по месту назначения? Чтобы ответить на эти и другие вопросы, мы посетим шесть невероятных вокзалов, портов и аэропортов.
Качество: HDTVRip
Видео: XviD, ~ 1600 Кбит/с, 720x400
Аудио: AC3, 2 ch, 192 Кбит/с
Продолжительность: 6 х ~ 00:44:00
Перевод: Профессиональный (одноголосый, закадровый)

Скриншоты



MediaInfo

General
Complete name : G:\Раздачи 2\Гигантские хабы GeneralFilm\01 Гигантские хабы GeneralFilm.avi
Format : AVI
Format/Info : Audio Video Interleave
File size : 565 MiB
Duration : 43 min 50 s
Overall bit rate : 1 802 kb/s
Writing application : VirtualDubMod 1.5.10.3 | www.virtualdub-fr.org || (build 2550/release)
Writing library : VirtualDubMod build 2550/release
Video
ID : 0
Format : MPEG-4 Visual
Format profile : Advanced Simple@L5
Format settings : BVOP1 / Custom Matrix
Format settings, BVOP : 1
Format settings, QPel : No
Format settings, GMC : No warppoints
Format settings, Matrix : Custom
Codec ID : XVID
Codec ID/Hint : XviD
Duration : 43 min 50 s
Bit rate : 1 600 kb/s
Width : 720 pixels
Height : 400 pixels
Display aspect ratio : 16:9
Frame rate : 25.000 FPS
Color space : YUV
Chroma subsampling : 4:2:0
Bit depth : 8 bits
Scan type : Progressive
Compression mode : Lossy
Bits/(Pixel*Frame) : 0.222
Stream size : 502 MiB (89%)
Writing library : XviD 73
Audio
ID : 1
Format : AC-3
Format/Info : Audio Coding 3
Commercial name : Dolby Digital
Codec ID : 2000
Duration : 43 min 50 s
Bit rate mode : Constant
Bit rate : 192 kb/s
Channel(s) : 2 channels
Channel layout : L R
Sampling rate : 48.0 kHz
Frame rate : 31.250 FPS (1536 SPF)
Bit depth : 16 bits
Compression mode : Lossy
Stream size : 60.2 MiB (11%)
Alignment : Split accross interleaves
Interleave, duration : 40 ms (1.00 video frame)
Interleave, preload duratio : 500 ms
Service kind : Complete Main

Название серий

01. Аэропорт Мюнхена.
02. Порт Ротердама.
03. Вокзал Седзюкио в Токио.
04. Аэропорт Луисвиль.
05. Рынок Раншиз в Париже.
06. Московский Метрополитен.

Внимание! Раздача ведётся путём добавления новых серий!

Внимание! Раздача ведётся путём добавления новых серий; при каждом добавлении создfётся новый торрент. Чтобы начать докачку новой серии, пользователям необходимо сделать следующее: (1) остановить скачивание, (2) удалить старый торрент у себя из клиента (старые серии удалять не надо), (3) скачать новый торрент и запустить его у себя в клиенте вместо старого, при этом указать клиенту путь в старую папку куда и должно происходить скачивание новых серий.
Ваш клиент при этом должен произвести хеширование (проверку) старой папки (если не производит сам - помогите ему сделать это), и будет докачивать только те серии которых у вас ещё нет. Старые серии при этом не удаляются, а продолжают раздаваться!
Eсли вы уже удалили старые серии, то предотвратить повторную закачку старых серий можно, отжав галочку в соответсвующих местах при запуске нового торрента.
Благодарю за отличный постер ValkiriaGF
Релиз от:
[Profile] [PM]
Display posts:    
Reply to topic

Current time is: 23-Oct 08:18

All times are UTC + 3



You cannot post new topics in this forum
You cannot reply to topics in this forum
You cannot edit your posts in this forum
You cannot delete your posts in this forum
You cannot vote in polls in this forum
You cannot attach files in this forum
You cannot download files in this forum