Холодный дом / Bleak House (1-8 серии из 8) (2005) (SDI Media) HDTVRip от Generalfilm

Reply to topic
 
Author Message

Brux ®

Gender: Male

Longevity: 6 months 20 days

Posts: 14

Post 19-Mar-2019 21:52

[Quote]

Холодный дом / Bleak House
Год выпуска: 2005
Жанр: Драма, мини-сериал, костюмированный, экранизация
Выпущено: США, Великобритания, BBC Television Centre, Deep Indigo Productions, Smallweed Productions, WGBH Boston
Режиссер: Джастин Чадвик, Сузанна Уайт
В ролях: Анна Максвелл Мартин, Денис Лоусон, Кэри Маллиган, Джиллиан Андерсон, Том Джорджсон, Чарльз Дэнс, Патрик Кеннеди, Тимоти Уэст, Берн Горман, Хьюго Спир, Полин Коллинз, Филип Дэвис, Натаниель Паркер, Алан Армстронг, Энн Рейд, Лило Баур, Кэти Энджелоу, Лу Брили, Майкл Смайли, Эмма Уильямс, Гарри Иден, Ричард Харингтон, Натали Пресс, Шон МакГинли, Дермот Краули
О фильме: Экранизация романа Чарльза Диккенса. Эстер исполнилось четырнадцать лет, когда внезапно умирает её крестная. Что может быть страшнее, чем осиротеть дважды! После похорон некий мистер Джарндис предлагает юной леди место в первоклассном учебном заведении, где она ни в чем не будет нуждаться. Там и протекают шесть счастливейших лет её жизни. Великодушный Джон Джарндис отправляет Эстер в свое поместье, именуемое Холодным домом. Еще совсем недавно, в результате многолетней изнурительной тяжбы Холодный дом был в запустении, но теперь, под присмотром умной и рассудительной девушки в нем налаживается жизнь.

Качество: HDTVRip
Видео: XviD, ~ 1300 Кбит/с, 720x400, 25 кадр/с
Аудио: AC3, 2 ch, 192 Кбит/с
Продолжительность: 8 x 00:52:00
Перевод: Профессиональный (двухголосый закадровый)
Cубтитры: нет

Скриншоты


MediaInfo

General
Complete name Xolodnyj.dom.XviD.2005.HDTVRip.Generalfilm\001.avi
Format : AVI
Format/Info : Audio Video Interleave
File size : 550 MiB
Duration : 51mn 49s
Overall bit rate : 1 485 Kbps
Director : Brux
Writing application : VirtualDubMod 1.5.10.3 | www.virtualdub-fr.org || (build 2550/release)
Video
ID : 0
Format : MPEG-4 Visual
Format profile : Advanced Simple@L5
Format settings, BVOP : 2
Format settings, QPel : No
Format settings, GMC : No warppoints
Format settings, Matrix : Custom
Codec ID : XVID
Codec ID/Hint : XviD
Duration : 51mn 49s
Bit rate : 1 283 Kbps
Width : 720 pixels
Height : 400 pixels
Display aspect ratio : 16:9
Frame rate : 25.000 fps
Color space : YUV
Chroma subsampling : 4:2:0
Bit depth : 8 bits
Scan type : Progressive
Compression mode : Lossy
Bits/(Pixel*Frame) : 0.178
Stream size : 476 MiB (86%)
Writing library : XviD 73
Audio
ID : 1
Format : AC-3
Format/Info : Audio Coding 3
Mode extension : CM (complete main)
Format settings, Endianness : Big
Codec ID : 2000
Duration : 51mn 49s
Bit rate mode : Constant
Bit rate : 192 Kbps
Channel(s) : 2 channels
Channel positions : Front: L R
Sampling rate : 48.0 KHz
Bit depth : 16 bits
Compression mode : Lossy
Stream size : 71.2 MiB (13%)
Alignment : Split accross interleaves
Interleave, duration : 40 ms (1.00 video frame)
Interleave, preload duration : 500 ms
Релиз от:
[Profile] [PM]
Display posts:    
Reply to topic

Current time is: 19-Jun 00:04

All times are UTC + 3



You cannot post new topics in this forum
You cannot reply to topics in this forum
You cannot edit your posts in this forum
You cannot delete your posts in this forum
You cannot vote in polls in this forum
You cannot attach files in this forum
You cannot download files in this forum