Гринч / The Grinch (2018) BDRip 1080p от R.G.Generalfilm DUB [iTunes]

Reply to topic
 
Author Message

White Smoke ®

Gender: Male

Longevity: 5 months 8 days

Posts: 58

Post 24-Mar-2019 12:16

[Quote]

Гринч / The Grinch Год выпуска: 2018
Жанр: мультфильм, комедия, приключения, семейный, фантастика
Выпущено: Китай, США, Франция, Япония, Illumination Entertainment , Perfect World Pictures Co., Universal Pictures
Режиссер: Ярроу Чейни, Скотт Моужер
В ролях: Рашида Джонс, Тристан Охара, Скарлет Эстевез, Бенедикт Камбербэтч, Рамон Хемилтон, Анджела Лэнсбери, Кэмерон Сили, Кенан Томпсон, Фаррелл Уильямс
О фильме: Любой бы на месте Гринча позеленел и взбесился. Как порядочный интроверт он живёт в тёмной пещере на самой вершине горы подальше ото всех, но эти «все» готовят грандиознейшее празднование нового года. Они шумят, всё украшают и дико бесят. Кто бы отказал себе в удовольствии испортить праздник? Гринч решает украсть Новый год.
Качество: BDRip 1080p
Видео: AVC, 1920x800 (2.40:1), 23.976 fps, 5 600 Kbps (0.152 bit/pixel)
Аудио: AC3, 384 Кбит/с, 6 ch, 48.0 KHz
Продолжительность: 01:25:49
Перевод / Озвучка: : Дублированный [ iTunes]
Cубтитры: Русские (Forced)

Скриншоты




MediaInfo

General
Unique ID : 240940758669793324951234424343426357960 (0xB543808FD27EDB2286D74216DC9DDAC8)
Complete name : E:\Запись с тв\The.Grinch.2018.BDRip-1080p.Rip.by.White Smoke.R.G.Generalfilm.mkv
Format : Matroska
Format version : Version 4 / Version 2
File size : 3.59 GiB
Duration : 1 h 25 min
Overall bit rate : 5 987 kb/s
Movie name : The.Grinch.2018.BDRip-1080p.Rip.by.White Smoke.R.G.Generalfilm.mkv
Encoded date : UTC 2019-03-24 06:54:48
Writing application : mkvmerge v6.8.0 ('Theme for Great Cities') 64bit built on Mar 2 2014 21:34:26
Writing library : libebml v1.3.0 + libmatroska v1.4.1
Cover : Yes
Attachments : cover.png
Video
ID : 1
Format : AVC
Format/Info : Advanced Video Codec
Format profile : High@L4.1
Format settings : CABAC / 5 Ref Frames
Format settings, CABAC : Yes
Format settings, ReFrames : 5 frames
Codec ID : V_MPEG4/ISO/AVC
Duration : 1 h 25 min
Bit rate : 5 600 kb/s
Width : 1 920 pixels
Height : 800 pixels
Display aspect ratio : 2.40:1
Frame rate mode : Constant
Frame rate : 23.976 (24000/1001) FPS
Color space : YUV
Chroma subsampling : 4:2:0
Bit depth : 8 bits
Scan type : Progressive
Bits/(Pixel*Frame) : 0.152
Stream size : 3.29 GiB (92%)
Writing library : x264 core 148 r2638 7599210
Encoding settings : cabac=1 / ref=5 / deblock=1:-2:-1 / analyse=0x3:0x113 / me=umh / subme=11 / psy=1 / psy_rd=0.00:0.15 / mixed_ref=1 / me_range=32 / chroma_me=1 / trellis=2 / 8x8dct=1 / cqm=0 / deadzone=21,11 / fast_pskip=0 / chroma_qp_offset=-3 / threads=6 / lookahead_threads=1 / sliced_threads=0 / nr=0 / decimate=0 / interlaced=0 / bluray_compat=0 / constrained_intra=0 / bframes=10 / b_pyramid=2 / b_adapt=2 / b_bias=10 / direct=1 / weightb=0 / open_gop=0 / weightp=2 / keyint=240 / keyint_min=23 / scenecut=40 / intra_refresh=0 / rc=2pass / mbtree=0 / bitrate=5600 / ratetol=1.0 / qcomp=0.65 / qpmin=0 / qpmax=69 / qpstep=4 / cplxblur=20.0 / qblur=0.5 / ip_ratio=1.40 / pb_ratio=1.30 / aq=1:0.75
Language : English
Default : Yes
Forced : No
Color range : Limited
Color primaries : BT.709
Transfer characteristics : BT.709
Matrix coefficients : BT.709
Audio
ID : 2
Format : AC-3
Format/Info : Audio Coding 3
Commercial name : Dolby Digital
Codec ID : A_AC3
Duration : 1 h 25 min
Bit rate mode : Constant
Bit rate : 384 kb/s
Channel(s) : 6 channels
Channel layout : L R C LFE Ls Rs
Sampling rate : 48.0 kHz
Frame rate : 31.250 FPS (1536 SPF)
Bit depth : 16 bits
Compression mode : Lossy
Stream size : 236 MiB (6%)
Title : iTunes
Language : Russian
Service kind : Complete Main
Default : Yes
Forced : Yes
Text
ID : 3
Format : UTF-8
Codec ID : S_TEXT/UTF8
Codec ID/Info : UTF-8 Plain Text
Title : Forced
Language : Russian
Default : Yes
Forced : Yes
Menu
00:00:00.000 : en:Chapter 1
00:05:40.298 : en:Chapter 2
00:10:35.927 : en:Chapter 3
00:14:14.103 : en:Chapter 4
00:17:45.106 : en:Chapter 5
00:22:19.296 : en:Chapter 6
00:26:28.337 : en:Chapter 7
00:30:45.093 : en:Chapter 8
00:34:46.584 : en:Chapter 9
00:38:37.190 : en:Chapter 10
00:44:40.595 : en:Chapter 11
00:47:27.678 : en:Chapter 12
00:52:37.488 : en:Chapter 13
00:56:33.181 : en:Chapter 14
01:01:04.995 : en:Chapter 15
01:05:34.639 : en:Chapter 16
01:07:23.456 : en:Chapter 17
01:12:14.914 : en:Chapter 18
01:14:12.782 : en:Chapter 19
01:18:08.309 : en:Chapter 20
Релиз от:
[Profile] [PM]
Display posts:    
Reply to topic

Current time is: 21-Apr 15:21

All times are UTC + 3



You cannot post new topics in this forum
You cannot reply to topics in this forum
You cannot edit your posts in this forum
You cannot delete your posts in this forum
You cannot vote in polls in this forum
You cannot attach files in this forum
You cannot download files in this forum