Чёрное лето / Black Summer [1 сезон: 1-8 серии из 8] (2019) WEB-DLRip от Generalfilm | КПК | Netflix

Reply to topic
 
Author Message

mjjhec ®

Gender: Male

Longevity: 7 months 3 days

Posts: 256

Location: СССР

Post 13-Apr-2019 20:37

[Quote]

Чёрное лето Год выпуска: 2019
Жанр: Ужасы, боевик, триллер, драма
Выпущено: Канада, США, The Asylum, Go2 Digital Media, Alberta Film Projects, Local Hero
Режиссер: Тим Кокс, Джон Хайамс
В ролях: Джейми Кинг, Джастин Чу-Кэри, Келси Флауэр, Гвинит Уолш, Кристин Ли, Мустафа Алабсси, Эрика Хау, Саль Велес мл., Кэш Хилл, Джоэль Гань, Дэвид Нэйсом, Джоэль Джекшоу, Бад Класки.
О фильме: Сюжет расскажет о матери, которая пускается в непростое путешествие и не остановится ни перед чем, пока не найдет свою потерянную дочь. Прибившись к небольшой группе американских беженцев, она должна будет храбро встретить новый враждебный мир и принять множество жестоких решений в самом худшем периоде зомби-апокалипсиса, названном «Чёрным летом».
Качество: WEB-DLRip | КПК
Видео: Н.264, 640x320 (2.000), 23.976 fps, 400 Kbps
Аудио: AAC LC, 48 KHz, 2 ch, 128 Kbps
Продолжительность: 8 х ~00:40:00
Перевод / Озвучка: Профессиональный (многоголосый, закадровый) [Netflix]

Скриншоты

MediaInfo

General
Complete name : F:\Rip\Black.Summer.S01.by.mjjhec\Black.Summer.S01E03.WEB-DLRip.mp4
Format : MPEG-4
Format profile : Base Media
Codec ID : isom (isom/avc1/iso6)
File size : 154 MiB
Duration : 40 min 26 s
Overall bit rate mode : Variable
Overall bit rate : 532 kb/s
Encoded date : UTC 2019-04-13 12:10:42
Tagged date : UTC 2019-04-13 12:10:42
Video
ID : 1
Format : AVC
Format/Info : Advanced Video Codec
Format profile : High@L4.1
Format settings : CABAC / 10 Ref Frames
Format settings, CABAC : Yes
Format settings, ReFrames : 10 frames
Codec ID : avc1
Codec ID/Info : Advanced Video Coding
Duration : 40 min 26 s
Bit rate : 400 kb/s
Maximum bit rate : 1 116 kb/s
Width : 640 pixels
Height : 320 pixels
Display aspect ratio : 2.000
Frame rate mode : Constant
Frame rate : 23.976 (24000/1001) FPS
Color space : YUV
Chroma subsampling : 4:2:0
Bit depth : 8 bits
Scan type : Progressive
Bits/(Pixel*Frame) : 0.081
Stream size : 116 MiB (75%)
Title : 264@GPAC0.5.2-DEV-rev248-g39d5978-master
Writing library : x264 core 146 r2538 121396c
Encoding settings : cabac=1 / ref=10 / deblock=1:-3:-3 / analyse=0x3:0x133 / me=umh / subme=11 / psy=1 / psy_rd=1.00:1.00 / mixed_ref=1 / me_range=48 / chroma_me=1 / trellis=2 / 8x8dct=1 / cqm=0 / deadzone=21,11 / fast_pskip=1 / chroma_qp_offset=-4 / threads=6 / lookahead_threads=1 / sliced_threads=0 / nr=0 / decimate=0 / interlaced=0 / bluray_compat=0 / constrained_intra=0 / bframes=10 / b_pyramid=2 / b_adapt=2 / b_bias=0 / direct=3 / weightb=1 / open_gop=0 / weightp=2 / keyint=240 / keyint_min=23 / scenecut=40 / intra_refresh=0 / rc_lookahead=60 / rc=2pass / mbtree=0 / bitrate=400 / ratetol=1.0 / qcomp=0.60 / qpmin=0 / qpmax=69 / qpstep=4 / cplxblur=20.0 / qblur=0.5 / vbv_maxrate=14000 / vbv_bufsize=14000 / nal_hrd=none / filler=0 / ip_ratio=1.40 / pb_ratio=1.30 / aq=1:1.00
Encoded date : UTC 2019-04-13 12:10:42
Tagged date : UTC 2019-04-13 12:10:45
Codec configuration box : avcC
Audio
ID : 2
Format : AAC LC
Format/Info : Advanced Audio Codec Low Complexity
Codec ID : mp4a-40-2
Duration : 40 min 26 s
Bit rate mode : Variable
Bit rate : 128 kb/s
Maximum bit rate : 137 kb/s
Channel(s) : 2 channels
Channel layout : L R
Sampling rate : 48.0 kHz
Frame rate : 46.875 FPS (1024 SPF)
Compression mode : Lossy
Stream size : 37.0 MiB (24%)
Encoded date : UTC 2019-04-13 11:22:47
Tagged date : UTC 2019-04-13 12:10:45
Релиз от:
[Profile] [PM]
Display posts:    
Reply to topic

Current time is: 20-Jun 06:51

All times are UTC + 3



You cannot post new topics in this forum
You cannot reply to topics in this forum
You cannot edit your posts in this forum
You cannot delete your posts in this forum
You cannot vote in polls in this forum
You cannot attach files in this forum
You cannot download files in this forum