Фея (Пери: это не сказка) / Pari (Pari: not a fairytale) (2018) WEB-DLRip 720p

Reply to topic
 
Author Message

Monk ®

Gender: Male

Longevity: 5 months 7 days

Posts: 5369

Location: Казань

Post 14-Apr-2019 07:43

[Quote]

Фея (Пери: это не сказка) / Pari (Pari: not a fairytale) Год выпуска: 2018
Жанр: Ужасы, мистика, триллер, фэнтези
Выпущено: Индия, Clean Slate Films, Kriarj Entertainment, Kyta Productions
Режиссер: Прозит Рой
В ролях: Анушка Шарма, Парамбрата Чаттерджи, Раджат Капур, Ритабхари Чакраборти, Дибюенду Бхаттачария, Митху Чакраборти, Аншуман Джха, Сантилал Мукхерджи, Манси Мултани
О фильме: После знакомства с потенциальной невестой Арнаб с родителями возвращается в Калькутту на машине. Идет сильный дождь, и они насмерть сбивают пожилую женщину. Попытки выяснить её личность и найти родственников приводят Арнаба в лесную хижину, где обнаруживается девушка Руксана, сидящая на цепи. Полиция освобождает несчастную, а после похорон матери в хижину за девушкой приходит группа вооружённых мужчин с явно недобрыми намерениями. Испуганная Руксана бежит к Арнабу, а тот, чувствуя вину за происходящее, разрешает ей пожить у себя...
Качество: WEB-DLRip 720p
Видео: MPEG-4 AVC, 2550 Кбит/с, 1280x544
Аудио: Русский (MP3, 2 ch, 192 Кбит/с), хинди (AAC, 2 ch, 256 Кбит/с)
Продолжительность: 02:16:43
Перевод: Дублированный

Скриншоты



MediaInfo

Общее
Уникальный идентификатор : 217869226061815996513641289524837031127 (0xA3E8162E413B04708F97629AC2FB1CD7)
Полное имя : K:HorrorPari (2018) Hindi True WEB-HD - 720p.mkv
Формат : Matroska
Версия формата : Version 4
Размер файла : 2,85 Гбайт
Продолжительность : 2 ч. 16 м.
Общий поток : 3000 Кбит/сек
Дата кодирования : UTC 2019-03-06 14:49:58
Программа кодирования : mkvmerge v8.3.0 ('Over the Horizon') 32bit
Библиотека кодирования : libebml v1.3.1 + libmatroska v1.4.2
Видео
Идентификатор : 1
Формат : AVC
Формат/Информация : Advanced Video Codec
Профиль формата : Main@L3.1
Настройки формата : CABAC / 2 Ref Frames
Параметр CABAC формата : Да
Параметр RefFrames формата : 2 кадра
Параметр GOP формата : M=1, N=25
Идентификатор кодека : V_MPEG4/ISO/AVC
Продолжительность : 2 ч. 16 м.
Битрейт : 2550 Кбит/сек
Ширина : 1280 пикселей
Высота : 544 пикселя
Соотношение сторон : 2,35:1
Режим частоты кадров : Постоянный
Частота кадров : 23,821 кадра/сек
Цветовое пространство : YUV
Субдискретизация насыщенности : 4:2:0
Битовая глубина : 8 бит
Тип развёртки : Прогрессивная
Бит/(Пиксели*Кадры) : 0.154
Размер потока : 2,42 Гбайт (85%)
Язык : Hindi
Default : Да
Forced : Нет
Аудио #1
Идентификатор : 2
Формат : MPEG Audio
Версия формата : Version 1
Профиль формата : Layer 3
Настройки формата : Joint stereo / MS Stereo
Идентификатор кодека : A_MPEG/L3
Идентификатор кодека/Подсказка : MP3
Продолжительность : 2 ч. 16 м.
Вид битрейта : Постоянный
Битрейт : 192 Кбит/сек
Каналы : 2 канала
Частота : 48,0 КГц
Частота кадров : 41,667 кадра/сек (1152 SPF)
Метод сжатия : С потерями
Размер потока : 187 Мбайт (6%)
Библиотека кодирования : LAME3.99.5
Default : Да
Forced : Нет
Аудио #2
Идентификатор : 3
Формат : AAC LC
Формат/Информация : Advanced Audio Codec Low Complexity
Идентификатор кодека : A_AAC-2
Продолжительность : 2 ч. 16 м.
Битрейт : 256 Кбит/сек
Каналы : 2 канала
Channel layout : L R
Частота : 44,1 КГц
Частота кадров : 43,066 кадра/сек (1024 SPF)
Метод сжатия : С потерями
Размер потока : 249 Мбайт (9%)
Язык : Hindi
Default : Нет
Forced : Нет
[Profile] [PM]
Display posts:    
Reply to topic

Current time is: 21-Apr 15:40

All times are UTC + 3



You cannot post new topics in this forum
You cannot reply to topics in this forum
You cannot edit your posts in this forum
You cannot delete your posts in this forum
You cannot vote in polls in this forum
You cannot attach files in this forum
You cannot download files in this forum