Мёрси Блэк / Mercy Black (2019) WEB-DL 1080p

Reply to topic
 
Author Message

Monk ®

Gender: Male

Longevity: 7 months 5 days

Posts: 6966

Location: Казань

Post 16-Apr-2019 08:05

[Quote]

Мёрси Блэк / Mercy Black Год выпуска: 2019
Жанр: Ужасы
Выпущено: США, Divide/Conquer
Режиссер: Оуэн Эгертон
В ролях: Даниэлла Пинеда, Жанин Гарофало, Элле ЛаМонт, Остин Амелио, Дилан Гейдж, Ли Эдди, Софианна Смит, Майлз Эммонс, Рошель Робинсон, Эльке Баучер-Депью, Патрик Лескарбо, Джесси Тилтон, Джейми Ленц, Трой Энтони Хоган
О фильме: Спустя пятнадцать лет после того, как Марина Хэсс заколола свою одноклассницу в попытках призвать дух, известный как Мёрси Блэк, она возвращается домой. Поселившись в доме у сестры и племянника, она узнает, что за годы её пребывания в психиатрической больнице легенда о Мёрси Блэк набрала в городе большую популярность. Преследуемая содеянным, Марина не видит другого выхода, кроме как встретиться с духом из прошлого лицом к лицу и узнать всю правду. В ином случае опасности подвергнется её племянник.
Качество: WEB-DL 1080p
Видео: MPEG-4 AVC, 8228 Кбит/с, 1920x800
Аудио: Русский (AC3, 2 ch, 192 Кбит/с), английский (Е-AC3, 6 ch, 640 Кбит/с)
Продолжительность: 01:28:16
Перевод: Профессиональный многоголосый [HDRezka Studio]
Субтитры: Английские

Скриншоты



MediaInfo

General
Unique ID : 92708653486109579239715293477685142973 (0x45BF0984F956819F00EC589BD6CFA5BD)
Complete name : G:\Mercy.Black.2019.WEB-DL.1080p.mkv
Format : Matroska
Format version : Version 4 / Version 2
File size : 4.41 GiB
Duration : 1 h 28 min
Overall bit rate : 7 157 kb/s
Encoded date : UTC 2019-04-15 20:40:40
Writing application : mkvmerge v20.0.0 ('I Am The Sun') 64-bit
Writing library : libebml v1.3.5 + libmatroska v1.4.8
Video
ID : 1
Format : AVC
Format/Info : Advanced Video Codec
Format profile : High@L4
Format settings : CABAC / 4 Ref Frames
Format settings, CABAC : Yes
Format settings, RefFrames : 4 frames
Codec ID : V_MPEG4/ISO/AVC
Duration : 1 h 28 min
Bit rate mode : Constant
Bit rate : 6 322 kb/s
Nominal bit rate : 10 000 kb/s
Width : 1 920 pixels
Height : 800 pixels
Display aspect ratio : 2.40:1
Frame rate mode : Constant
Frame rate : 23.976 (24000/1001) FPS
Color space : YUV
Chroma subsampling : 4:2:0
Bit depth : 8 bits
Scan type : Progressive
Bits/(Pixel*Frame) : 0.172
Stream size : 3.90 GiB (88%)
Language : English
Default : Yes
Forced : No
Color range : Limited
Color primaries : BT.709
Transfer characteristics : BT.709
Matrix coefficients : BT.709
Audio #1
ID : 2
Format : AC-3
Format/Info : Audio Coding 3
Codec ID : A_AC3
Duration : 1 h 28 min
Bit rate mode : Constant
Bit rate : 192 kb/s
Channel(s) : 2 channels
Channel positions : Front: L R
Sampling rate : 48.0 kHz
Frame rate : 31.250 FPS (1536 SPF)
Bit depth : 16 bits
Compression mode : Lossy
Stream size : 121 MiB (3%)
Language : Russian
Service kind : Complete Main
Default : Yes
Forced : No
Audio #2
ID : 3
Format : E-AC-3
Format/Info : Enhanced Audio Coding 3
Codec ID : A_EAC3
Duration : 1 h 28 min
Bit rate mode : Constant
Bit rate : 640 kb/s
Channel(s) : 6 channels
Channel positions : Front: L C R, Side: L R, LFE
Sampling rate : 48.0 kHz
Frame rate : 187.500 FPS (256 SPF)
Compression mode : Lossy
Stream size : 404 MiB (9%)
Language : English
Service kind : Complete Main
Default : No
Forced : No
Text
ID : 4
Format : UTF-8
Codec ID : S_TEXT/UTF8
Codec ID/Info : UTF-8 Plain Text
Duration : 1 h 22 min
Bit rate : 41 b/s
Count of elements : 894
Stream size : 25.1 KiB (0%)
Language : English
Default : No
Forced : No
[Profile] [PM]
Display posts:    
Reply to topic

Current time is: 20-Jun 06:37

All times are UTC + 3



You cannot post new topics in this forum
You cannot reply to topics in this forum
You cannot edit your posts in this forum
You cannot delete your posts in this forum
You cannot vote in polls in this forum
You cannot attach files in this forum
You cannot download files in this forum