Игра престолов / Game of Thrones [8 сезон: 1-6 серия из 6] (2019) WEB-DLRip | Нота

Reply to topic
 
Author Message

papa1951deda ®

Gender: Male

Longevity: 6 months 6 days

Posts: 237

Location: Казахстан

Post 17-Apr-2019 08:57

[Quote]

Игра престолов / Game of Thrones Название: Игра престолов
Оригинальное название: Game of Thrones
Год выпуска: 2019
Жанр: Драма, фэнтези, приключения, экранизация
Выпущено: США, Великобритания, Bighead Littlehead, Created By, Generator Entertainment, Home Box Office (HBO)
Режиссер: Джереми Подесва, Дэниэл Сакхайм, Джек Бендер, Марк Майлод, Мигель Сапочник
В ролях: Питер Динклэйдж, Иэн Глен, Николай Костер-Валдау, Лина Хиди, Эмилия Кларк, Кит Харингтон, Лиам Каннингэм, Кэрис ван Хаутен, Натали Дормер, Индира Варма, Софи Тёрнер, Мэйси Уильямс, Конлет Хилл, Элфи Оуэн-Аллен, Гвендолин Кристи, Джонатан Прайс, Майкл МакЭлхаттон, Иван Реон, Джозеф Науфаху, Ханна Уэддингхэм, Розабелла Лауренти Селлерс, Дэниэл Портман, Фэй Марсей, Оуэн Тил
О фильме: «Игра престолов» новый сериал HBO, основанный на бестселлерах Джорджа Р.Р. Мартина. В мире, где лето и зимы длятся десятилетиями, на кону корона Вестероса. Предательство, похоть, интриги и сверхъестественные силы сотрясают все четыре стороны Королевства — от плетущего интриги юга, диких восточных земель, до замерзшего севера и древней Стены, что защищает королевство от тьмы за нею. Короли и королевы, рыцари и мятежники, лжецы и благородные люди борются за власть в кровавом сражении за Железный Трон. Экранизация по произведению: Джордж Р.Р. Мартин.
Качество: WEB-DLRip
Видео: XviD, ~ 1600 Кбит/с, 720x400, 23.976 кадр/с
Аудио: Русский, английский (AC3, 2 ch, 192 Кбит/с), (AC3, 2 ch, 192 Кбит/с)
Продолжительность: 6 x ~ 00:55:00
Перевод: Профессиональный (многоголосый, закадровый) | Нота
Субтитры: Русские, английские
Дополнительно: Рекламы нет

Скриншоты

MediaInfo

General
Complete name : D:\Game of Thrones S08 400p\Game.of.Thrones.S08E01.WEB-DLRip.Rus.Eng.RGzsRutracker.avi
Format : AVI
Format/Info : Audio Video Interleave
File size : 797 MiB
Duration : 55 min 45 s
Overall bit rate : 1 998 kb/s
Movie name : Игра престолов 1х01: Винтерфелл
Director : Бёдвар (WEB-DLRip 400p)
Writing application : VirtualDubModRus 1.5.10.2 (build 2542/release)
Comment : 16.04.2019
Video
ID : 0
Format : MPEG-4 Visual
Format profile : Advanced Simple@L5
Format settings : BVOP1
Format settings, BVOP : 1
Format settings, QPel : No
Format settings, GMC : No warppoints
Format settings, Matrix : Default (MPEG)
Codec ID : XVID
Codec ID/Hint : XviD
Duration : 55 min 45 s
Bit rate : 1 600 kb/s
Width : 720 pixels
Height : 400 pixels
Display aspect ratio : 16:9
Frame rate : 23.976 (24000/1001) FPS
Color space : YUV
Chroma subsampling : 4:2:0
Bit depth : 8 bits
Scan type : Progressive
Compression mode : Lossy
Bits/(Pixel*Frame) : 0.232
Stream size : 638 MiB (80%)
Writing library : XviD 67
Audio #1
ID : 1
Format : AC-3
Format/Info : Audio Coding 3
Format settings, Endianness : Big
Codec ID : 2000
Duration : 55 min 45 s
Bit rate mode : Constant
Bit rate : 192 kb/s
Channel(s) : 2 channels
Channel positions : Front: L R
Sampling rate : 48.0 kHz
Frame rate : 31.250 FPS (1536 SPF)
Bit depth : 16 bits
Compression mode : Lossy
Stream size : 76.6 MiB (10%)
Alignment : Split accross interleaves
Interleave, duration : 42 ms (1.00 video frame)
Interleave, preload duration : 500 ms
Service kind : Complete Main
Audio #2
ID : 2
Format : AC-3
Format/Info : Audio Coding 3
Format settings, Endianness : Big
Codec ID : 2000
Duration : 55 min 45 s
Bit rate mode : Constant
Bit rate : 192 kb/s
Channel(s) : 2 channels
Channel positions : Front: L R
Sampling rate : 48.0 kHz
Frame rate : 31.250 FPS (1536 SPF)
Bit depth : 16 bits
Compression mode : Lossy
Stream size : 76.6 MiB (10%)
Alignment : Split accross interleaves
Interleave, duration : 42 ms (1.00 video frame)
Interleave, preload duration : 500 ms
Service kind : Complete Main


Last edited by papa1951deda on 2019-05-21 20:34; edited 1 time in total
[Profile] [PM]

papa1951deda ®

Gender: Male

Longevity: 6 months 6 days

Posts: 237

Location: Казахстан

Post 15-May-2019 19:47 (after 28 days)

[Quote]

Добавлена 6 серия
[Profile] [PM]
Display posts:    
Reply to topic

Current time is: 26-May 23:08

All times are UTC + 3



You cannot post new topics in this forum
You cannot reply to topics in this forum
You cannot edit your posts in this forum
You cannot delete your posts in this forum
You cannot vote in polls in this forum
You cannot attach files in this forum
You cannot download files in this forum