Люцифер / Lucifer [2 сезон: 1-18 серия из 18] (2016-2017) WEB-DLRip от GeneralFilm | Fox Life

Reply to topic
 
Author Message

Monk ®

Gender: Male

Longevity: 1 year 1 month

Posts: 9711

Location: Казань

Post 29-Apr-2019 08:41

[Quote]

Люцифер / Lucifer Год выпуска: 2016-2017
Жанр: Фэнтези, драма, ужасы
Выпущено: США, Aggressive Mediocrity, DC Entertainment, Jerry Bruckheimer Television
Режиссер: Том Капинос
В ролях: Лесли-Энн Брандт, Лорен Джерман, Д.Б. Вудсайд, Том Эллис, Скарлет Эстевез, Кевин Алехандро, Рейчел Харрис, Кевин О. Ранкин, Локлин Манро, Ивэн Арнольд
О фильме: От беспросветной скуки в аду Люцифер решает бросить всё и поселиться в Лос-Анджелесе. Используя свой опыт и телепатические способности, он помогает людям решать загадки собственной натуры, вытаскивая наружу их самые глубоко запрятанные секреты и тайные желания. Встретив в своём ночном клубе девушку, герой, сам того не осознавая, начинает испытывать к ней влечение и, следуя за ней, присоединяется к правоохранительным органам Лос-Анджелеса в качестве консультанта. Новая профессия почти полностью удовлетворяет его стремление наказывать грешников, чем он прежде долгое время занимался в аду.
Качество: WEB-DLRip
Видео: XviD, 720x400, 23.976 fps, ~1300 Кбит/с
Аудио: AC3, 2 ch, 192 Кбит/с
Продолжительность: 18 х ~00:45:00
Перевод: Профессиональный многоголосый [Fox Life]
Субтитры: Нет

Скриншоты

MediaInfo

General
Complete name : C:\Users\Evgeny\Downloads\Lucifer.S02.WEB-DLRip.Generalfilm\Lucifer.S02E01.WEB-DLRip.Generalfilm.avi
Format : AVI
Format/Info : Audio Video Interleave
File size : 467 MiB
Duration : 43 min 55 s
Overall bit rate : 1 488 kb/s
Writing application : VirtualDubMod 1.5.10.2 (build 2540/release)
Writing library : VirtualDubMod build 2540/release
Video #0
ID : 0
Format : MPEG-4 Visual
Format profile : Advanced Simple@L5
Format settings : BVOP1
Format settings, BVOP : 1
Format settings, QPel : No
Format settings, GMC : No warppoints
Format settings, Matrix : Default (MPEG)
Codec ID : XVID
Codec ID/Hint : XviD
Duration : 43 min 55 s
Bit rate : 1 286 kb/s
Width : 720 pixels
Height : 400 pixels
Display aspect ratio : 16:9
Frame rate : 23.976 (24000/1001) FPS
Color space : YUV
Chroma subsampling : 4:2:0
Bit depth : 8 bits
Scan type : Progressive
Compression mode : Lossy
Bits/(Pixel*Frame) : 0.186
Stream size : 404 MiB (86%)
Writing library : XviD 73
Audio #1
ID : 1
Format : AC-3
Format/Info : Audio Coding 3
Codec ID : 2000
Duration : 43 min 55 s
Bit rate mode : Constant
Bit rate : 192 kb/s
Channel(s) : 2 channels
Channel positions : Front: L R
Sampling rate : 48.0 kHz
Frame rate : 31.250 FPS (1536 SPF)
Bit depth : 16 bits
Compression mode : Lossy
Stream size : 60.3 MiB (13%)
Alignment : Split accross interleaves
Interleave, duration : 42 ms (1.00 video frame)
Interleave, preload duration : 500 ms
Service kind : Complete Main
Релиз:
[Profile] [PM]
Display posts:    
Reply to topic

Current time is: 15-Dec 14:27

All times are UTC + 3



You cannot post new topics in this forum
You cannot reply to topics in this forum
You cannot edit your posts in this forum
You cannot delete your posts in this forum
You cannot vote in polls in this forum
You cannot attach files in this forum
You cannot download files in this forum