Молодежка. Лёд и пламя [6 сезон: 1-28 серии из 44] (2018) WEB-DLRip от Files-x

Ответить на тему
 
Автор Сообщение

bond74 ®

Пол: Мужской

Стаж: 2 месяца 1 день

Сообщений: 182

Создавать темы 25-Ноя-2018 17:59

[Цитировать]

Молодежка. Лёд и пламя Год выпуска: 2018
Жанр: Драма, спорт
Выпущено: Россия, ООО Арт Пикчерс Вижн при поддержке Континентальной Хоккейной Лиги
Режиссер: Сергей Арланов
В ролях: Денис Никифоров, Андрей Мерзликин, Михаил Жигалов, Фёдор Бондарчук, Сергей Габриэлян, Владимир Зайцев, Сергей Комаров (II), Анатолий Кот, Анатолий Лобоцкий, Ксения Лаврова-Глинка, Серафима Низовская, Валентина Ананьина, Макар Запорожский, Александр Соколовский, Влад Канопка
О фильме: Главных героев ждут новые сражения на льду, но уже в рядах Высшей Хоккейной Лиги. После триумфального завершения сезона под руководством Макеева главных героев ждет карьера в ВХЛ. Ребята вступают на взрослый путь в составе клуба «Бурые Медведи», где их ждут не только заманчивые перспективы, но и непростой прием старожилов. Хватит ли опыта бывшим звездам молодежной команды, чтобы сыграться с ними и найти общий язык

Качество: WEB-DLRip
Видео: XviD, ~ 1600 Кбит/с, 720x400, 25 кадр/с
Аудио: AC3, 2 ch, 192 Кбит/с
Продолжительность: 28 х ~ 00:47:00
Перевод: Не требуется
Субтитры: нет

Скриншоты

MediaInfo

General
General
Complete name : X:\раздачи\Moldegka.6.2018.WEB-DLRip.RG.Russkie.serialy.&.Files-x\01.Moldegka.6.2018.WEB-DLRip.RG.Russkie.serialy.&.Files-x.avi
Format : AVI
Format/Info : Audio Video Interleave
File size : 601 MiB
Duration : 48 min 14 s
Overall bit rate : 1 740 kb/s
Writing application : VirtualDubMod 1.5.10.3 | www.virtualdub-fr.org || (build 2550/release)
Writing library : VirtualDubMod build 2550/release
Video
ID : 0
Format : MPEG-4 Visual
Format profile : Advanced Simple@L5
Format settings, BVOP : 1
Format settings, QPel : No
Format settings, GMC : No warppoints
Format settings, Matrix : Custom
Codec ID : XVID
Codec ID/Hint : XviD
Duration : 48 min 14 s
Bit rate : 1 539 kb/s
Width : 720 pixels
Height : 400 pixels
Display aspect ratio : 16:9
Frame rate : 25.000 FPS
Color space : YUV
Chroma subsampling : 4:2:0
Bit depth : 8 bits
Scan type : Progressive
Compression mode : Lossy
Bits/(Pixel*Frame) : 0.214
Stream size : 531 MiB (88%)
Writing library : XviD 73
Audio
ID : 1
Format : AC-3
Format/Info : Audio Coding 3
Format settings, Endianness : Big
Codec ID : 2000
Duration : 48 min 14 s
Bit rate mode : Constant
Bit rate : 192 kb/s
Channel(s) : 2 channels
Channel positions : Front: L R
Sampling rate : 48.0 kHz
Frame rate : 31.250 FPS (1536 spf)
Bit depth : 16 bits
Compression mode : Lossy
Stream size : 66.3 MiB (11%)
Alignment : Split accross interleaves
Interleave, duration : 40 ms (1.00 video frame)
Interleave, preload duratio : 500 ms
Service kind : Complete Main
Релиз от:

Релиз подготовлен R.G.Files-x



Последний раз редактировалось: bond74 (2018-11-25 22:44), всего редактировалось 1 раз
[Профиль] [ЛС]
Показать сообщения:    
Ответить на тему

Текущее время: 16-Янв 15:08

Часовой пояс: UTC + 3



Вы не можете начинать темы
Вы не можете отвечать на сообщения
Вы не можете редактировать свои сообщения
Вы не можете удалять свои сообщения
Вы не можете голосовать в опросах
Вы не можете прикреплять файлы к сообщениям
Вы не можете скачивать файлы