Игра престолов / Game of Thrones [8 сезон: 1-5 серия из 6] (2019) WEB-DLRip 1080p от Files-x | Нота

Reply to topic
 
Author Message

papa1951deda ®

Gender: Male

Longevity: 6 months 6 days

Posts: 237

Location: Казахстан

Post 07-May-2019 20:02

[Quote]

Игра престолов Название: Игра престолов
Оригинальное название: Game of Thrones
Год выпуска: 2019
Жанр: Драма, фэнтези, приключения, экранизация
Выпущено: США, Великобритания, Bighead Littlehead, Created By, Generator Entertainment, Home Box Office (HBO)
Режиссер: Джереми Подесва, Дэниэл Сакхайм, Джек Бендер, Марк Майлод, Мигель Сапочник
В ролях: Питер Динклэйдж, Иэн Глен, Николай Костер-Валдау, Лина Хиди, Эмилия Кларк, Кит Харингтон, Лиам Каннингэм, Кэрис ван Хаутен, Натали Дормер, Индира Варма, Софи Тёрнер, Мэйси Уильямс, Конлет Хилл, Элфи Оуэн-Аллен, Гвендолин Кристи, Джонатан Прайс, Майкл МакЭлхаттон, Иван Реон, Джозеф Науфаху, Ханна Уэддингхэм, Розабелла Лауренти Селлерс, Дэниэл Портман, Фэй Марсей, Оуэн Тил
О фильме: «Игра престолов» новый сериал HBO, основанный на бестселлерах Джорджа Р.Р. Мартина. В мире, где лето и зимы длятся десятилетиями, на кону корона Вестероса. Предательство, похоть, интриги и сверхъестественные силы сотрясают все четыре стороны Королевства — от плетущего интриги юга, диких восточных земель, до замерзшего севера и древней Стены, что защищает королевство от тьмы за нею. Короли и королевы, рыцари и мятежники, лжецы и благородные люди борются за власть в кровавом сражении за Железный Трон. Экранизация по произведению: Джордж Р.Р. Мартин.
Качество: WEB-DLRip 1080p
Видео: MPEG-4 AVC, ~ 6449 Кбит/с, 1920x1080, 23.976 кадр/с
Аудио: Русский (AC3, 2 ch, 192 Кбит/с), английский (E-AC3, 6 ch, 640 Кбит/с)
Продолжительность: 8 x ~ 00:55:00
Перевод: Профессиональный (многоголосый, закадровый) | Нота
Субтитры: Русские, английские
Дополнительно: Рекламы нет

Скриншоты

MediaInfo

General
Unique ID : 198324422696372215848072482474770190147 (0x9533E4F9D9E2C108B31284C7E8BE4F43)
Complete name : D:\моё видио\Game of Thrones (Season 08) 1080\Game of Thrones.S08E01.1O8OP.Нота.Files-x.mkv
Format : Matroska
Format version : Version 4 / Version 2
File size : 2.90 GiB
Duration : 55mn 47s
Overall bit rate : 7 428 Kbps
Movie name : Винтерфелл
Encoded date : UTC 2019-04-16 16:31:42
Writing application : mkvmerge v31.0.0 ('Dolores In A Shoestand') 64-bit
Writing library : libebml v1.3.6 + libmatroska v1.4.9
Attachements : poster.Game.of.Thrones.jpg
Video
ID : 1
Format : AVC
Format/Info : Advanced Video Codec
Format profile : High@L4.0
Format settings, CABAC : Yes
Format settings, ReFrames : 4 frames
Codec ID : V_MPEG4/ISO/AVC
Duration : 55mn 47s
Bit rate mode : Constant
Bit rate : 6 449 Kbps
Nominal bit rate : 10 000 Kbps
Width : 1 920 pixels
Height : 1 080 pixels
Display aspect ratio : 16:9
Frame rate mode : Constant
Frame rate : 23.976 fps
Color space : YUV
Chroma subsampling : 4:2:0
Bit depth : 8 bits
Scan type : Progressive
Bits/(Pixel*Frame) : 0.130
Stream size : 2.51 GiB (87%)
Title : Game.of.Thrones.S08E01.Winterfell.1080p.WEB-DL.Rus.Eng.EniaHD
Language : English
Default : Yes
Forced : No
Color primaries : BT.709
Transfer characteristics : BT.709
Matrix coefficients : BT.709
Audio #1
ID : 2
Format : AC-3
Format/Info : Audio Coding 3
Mode extension : CM (complete main)
Format settings, Endianness : Big
Codec ID : A_AC3
Duration : 55mn 47s
Bit rate mode : Constant
Bit rate : 192 Kbps
Channel(s) : 2 channels
Channel positions : Front: L R
Sampling rate : 48.0 KHz
Bit depth : 16 bits
Compression mode : Lossy
Stream size : 76.6 MiB (3%)
Title : AC3 2.0 @ 192 kbps - MVO, Нота
Language : Russian
Default : Yes
Forced : Yes
Audio #2
ID : 3
Format : E-AC-3
Format/Info : Audio Coding 3
Format settings, Endianness : Big
Codec ID : A_EAC3
Duration : 55mn 47s
Bit rate mode : Constant
Bit rate : 640 Kbps
Channel(s) : 6 channels
Channel positions : Front: L C R, Side: L R, LFE
Sampling rate : 48.0 KHz
Compression mode : Lossy
Delay relative to video : 8ms
Stream size : 255 MiB (9%)
Title : E-AC3 5.1 @ 640 kbps - Original
Language : English
Default : No
Forced : No
Text #1
ID : 4
Format : UTF-8
Codec ID : S_TEXT/UTF8
Codec ID/Info : UTF-8 Plain Text
Title : Forced
Language : Russian
Default : Yes
Forced : Yes
Text #2
ID : 5
Format : UTF-8
Codec ID : S_TEXT/UTF8
Codec ID/Info : UTF-8 Plain Text
Title : Full
Language : Russian
Default : No
Forced : No
Text #3
ID : 6
Format : UTF-8
Codec ID : S_TEXT/UTF8
Codec ID/Info : UTF-8 Plain Text
Title : Full SDH
Language : English
Default : No
Forced : No
Menu
00:00:00.000 : en:Ratings
00:00:03.944 : en:Previously On
00:01:59.944 : en:Studio Logo
00:02:05.944 : en:Opening Credits
00:03:52.944 : en:Arrival in Winterfell
00:09:46.944 : en:Fight together or die
00:12:53.944 : en:Sansa sees through the lies
00:15:36.944 : en:A tearful reunion
00:17:45.944 : en:A queen must be earned
00:22:40.944 : en:Cersei asks a favor of Bronn
00:25:25.944 : en:What is dead may never die
00:29:24.944 : en:Hold on to whatever you can
00:36:41.944 : en:A forge for dragonglass
00:39:11.944 : en:Sansa is frustrated with Jon's choice
00:41:03.944 : en:The head of House Tarly
00:44:32.944 : en:It's time for Jon to know the truth
00:48:40.944 : en:A message from the Night King
00:52:28.944 : en:An unexpected visitor
00:53:43.944 : en:End Credits
00:55:03.944 : en:Next Time
00:55:40.944 : en:Inside Game of Thrones
Релиз от:
[Profile] [PM]
Display posts:    
Reply to topic

Current time is: 26-May 22:31

All times are UTC + 3



You cannot post new topics in this forum
You cannot reply to topics in this forum
You cannot edit your posts in this forum
You cannot delete your posts in this forum
You cannot vote in polls in this forum
You cannot attach files in this forum
You cannot download files in this forum