Парад Победы. Казань (2019) HDTV 1080i

Reply to topic
 
Author Message

bond74 ®

Gender: Male

Longevity: 8 months 6 days

Posts: 551

Post 09-May-2019 12:00

[Quote]

Парад Победы. Казань Год выпуска: 2019
Жанр: Документальный, военный парад
Выпущено: Россия, Татмедиа, ТНВ HD
Режиссер: Павел Игнатов
О фильме: Утро праздничного дня, 9 мая, начинается с прямой трансляции Парада, посвящённого 74-й годовщине Победы в Великой Отечественной войне.
Качество: HDTV 1080i
Видео: MPEG-4 AVC, 5.9 Мбит/с, 1920x1080, 25 кадр/с
Аудио: MP2, 2 ch, 192 Кбит/с
Продолжительность: 01:11:24
Перевод: Не требуется
Субтитры: нет

Скриншоты

MediaInfo

General
ID : 1 (0x1)
Complete name : G:\Парад войск Казанского гарнизона, посвященный 74-й годовщине Победы Великой отечественной войне 09.05.2019.ts
Format : MPEG-TS
File size : 3.16 GiB
Duration : 1 h 11 min
Overall bit rate mode : Variable
Overall bit rate : 6 335 kb/s
Video
ID : 2405 (0x965)
Menu ID : 405 (0x195)
Format : AVC
Format/Info : Advanced Video Codec
Format profile : High@L4
Format settings : CABAC / 4 Ref Frames
Format settings, CABAC : Yes
Format settings, ReFrames : 4 frames
Codec ID : 27
Duration : 1 h 11 min
Bit rate mode : Constant
Bit rate : 5 900 kb/s
Width : 1 920 pixels
Height : 1 080 pixels
Display aspect ratio : 16:9
Frame rate : 25.000 FPS
Color space : YUV
Chroma subsampling : 4:2:0
Bit depth : 8 bits
Scan type : Interlaced
Scan type, store method : Separated fields
Scan order : Top Field First
Bits/(Pixel*Frame) : 0.114
Stream size : 2.91 GiB (92%)
Audio
ID : 3405 (0xD4D)
Menu ID : 405 (0x195)
Format : MPEG Audio
Format version : Version 1
Format profile : Layer 2
Codec ID : 3
Duration : 1 h 11 min
Bit rate mode : Constant
Bit rate : 192 kb/s
Channel(s) : 2 channels
Sampling rate : 48.0 kHz
Frame rate : 41.667 FPS (1152 SPF)
Compression mode : Lossy
Stream size : 98.1 MiB (3%)
Language : English
[Profile] [PM]
Display posts:    
Reply to topic

Current time is: 21-Jul 15:55

All times are UTC + 3



You cannot post new topics in this forum
You cannot reply to topics in this forum
You cannot edit your posts in this forum
You cannot delete your posts in this forum
You cannot vote in polls in this forum
You cannot attach files in this forum
You cannot download files in this forum