КВН-2019. КиВиН, 1/8 финала.1-4 Игра Первая, Игра Вторая (2019) WEB-DL 1080p

Reply to topic
 
Author Message

papa1951deda ®

Gender: Male

Longevity: 8 months

Posts: 270

Location: Казахстан

Post 13-May-2019 11:27

[Quote]

КВН-2019. КиВиН, 1/8 финала.1-4 Игра Первая, Игра Вторая (2019) Год выпуска: 2019
Жанр: Передача, юмор
Выпущено: Россия, АМИК, ОАО "Первый канал"
Режиссер: Александр Масляков
О фильме: Что такое КВН - знают, без сомнения, все. В КВН играют во всем мире, это прежде всего молодежная игра. Постоянные конкурсные задания - "Визитная карточка", "Разминка", "Конкурс капитанов", "Музыкальный конкурс", "Домашнее задание". Игру команд оценивает профессиональное жюри - люди, у которых с чувством юмора все в порядке, многие из них раньше сами играли в КВН. Среди членов жюри были Константин Эрнст, Леонид Парфенов, Юлий Гусман, Леонид Ярмольник, Валдис Пельш, Сергей Шолохов, Геннадий Хазанов и другие. Кроме самих игр проводятся ежегодные встречи: фестиваль команд КВН (с 1990 г., семь раз фестиваль проходил в г.Сочи), музыкальный фестиваль КВН, летний кубок КВН, международные товарищеские игры в КВН. Сборная КВН играет со сборными других стран. Уже состоялись игры между сборной КВН и сборными Америки, Австралии, Израиля... Игра в КВН для многих становится профессией, а многие благодаря игре связывают жизнь с искусством. Из КВН "вышли": Леонид Якубович, Михаил Марфин, Татьяна Лазарева, Олег Филимонов, Юлий Гусман и многие другие.
Качество: WEB-DLRip 1080p
Видео: MPEG-4 AVC, ~ 4368 Кбит/с, 1920x1080, 25 кадр/с
Аудио: AC3, 2 ch, 192 Кбит/с
Продолжительность: 7 x ~ 01:47:58
Перевод: Не требуется
Cубтитры: нет

Скриншоты


MediaInfo

General
Unique ID : 197580151235421587714814608709371517167 (0x94A48D8F5103E06BA335D1EAF3CF58EF)
Complete name : D:\моё видио\KVN (2019)\07. КВН 2019 Высшая Лига 1.4. финала. Игра 2. (12.05.2019). 1080p.mkv
Format : Matroska
Format version : Version 2
File size : 2.51 GiB
Duration : 1h 47mn
Overall bit rate : 3 338 Kbps
Encoded date : UTC 2019-05-13 06:09:43
Writing application : mkvmerge v7.8.0 ('River Man') 32bit built on Apr 3 2015 12:11:22
Writing library : libebml v1.3.1 + libmatroska v1.4.2
Video
ID : 1
Format : AVC
Format/Info : Advanced Video Codec
Format profile : High@L4.0
Format settings, CABAC : Yes
Format settings, ReFrames : 3 frames
Codec ID : V_MPEG4/ISO/AVC
Duration : 1h 47mn
Bit rate : 3 079 Kbps
Width : 1 920 pixels
Height : 1 080 pixels
Display aspect ratio : 16:9
Frame rate mode : Constant
Frame rate : 25.000 fps
Color space : YUV
Chroma subsampling : 4:2:0
Bit depth : 8 bits
Scan type : Progressive
Bits/(Pixel*Frame) : 0.059
Stream size : 2.31 GiB (92%)
Writing library : x264 core 155 r2901 7d0ff22
Default : Yes
Forced : No
Color primaries : BT.709
Transfer characteristics : BT.709
Matrix coefficients : BT.709
Audio
ID : 2
Format : AC-3
Format/Info : Audio Coding 3
Mode extension : CM (complete main)
Format settings, Endianness : Big
Codec ID : A_AC3
Duration : 1h 47mn
Bit rate mode : Constant
Bit rate : 192 Kbps
Channel(s) : 2 channels
Channel positions : Front: L R
Sampling rate : 44.1 KHz
Bit depth : 16 bits
Compression mode : Lossy
Stream size : 148 MiB (6%)
Default : Yes
Forced : No
[Profile] [PM]
Display posts:    
Reply to topic

Current time is: 21-Jul 16:13

All times are UTC + 3



You cannot post new topics in this forum
You cannot reply to topics in this forum
You cannot edit your posts in this forum
You cannot delete your posts in this forum
You cannot vote in polls in this forum
You cannot attach files in this forum
You cannot download files in this forum