Красотка на всю голову / I Feel Pretty (2018) BDRip от Generalfilm | iTunes

Reply to topic
 
Author Message

Monk ®

Gender: Male

Longevity: 6 months 12 days

Posts: 6383

Location: Казань

Post 15-May-2019 13:15

[Quote]

Красотка на всю голову / I Feel Pretty Год выпуска: 2018
Жанр: Комедия
Выпущено: Китай, США, Huayi Brothers Pictures, Voltage Pictures
Режиссер: Эбби Кон, Марк Силверштейн
В ролях: Эми Шумер, Мишель Уильямс, Том Хоппер, Рори Сковел, Адриан Мартинес, Эмили Ратажковски, Эйди Брайант, Бизи Филиппс, Лорен Хаттон, Сашир Замата
О фильме: Ее жизнь состояла из вечных попыток сесть на диету или заняться фитнесом. «Попытка засчитана», - подумала Вселенная и скинула бедняжку с велотренажера. Девушка ударяется головой и обретает аномальную уверенность в том, что теперь она просто неотразима. Одна проблема - в глазах других людей она ни капли не изменилась. В общем, красотка на всю голову.
Качество: BDRip
Видео: XviD, 803 Кбит/с, 688x288
Аудио: Русский (MP3, 2 ch, 128 Кбит/с)
Продолжительность: 01:50:58
Перевод: Дублированный [iTunes]
Субтитры: Нет

Скриншоты

MediaInfo

General
Complete name : C:\Users\Evgeny\Downloads\Krasotka.Na.Vsju.Golovu.2018.XviD.745Mb.BDRip.GeneralFilm.avi
Format : AVI
Format/Info : Audio Video Interleave
File size : 746 MiB
Duration : 1 h 50 min
Overall bit rate : 940 kb/s
Writing application : VirtualDubMod 1.5.10.3 | www.virtualdub-fr.org || (build 2550/release)
Writing library : VirtualDubMod build 2550/release
Video #0
ID : 0
Format : MPEG-4 Visual
Format profile : Advanced Simple@L5
Format settings : BVOP1 / Custom Matrix
Format settings, BVOP : 1
Format settings, QPel : No
Format settings, GMC : No warppoints
Format settings, Matrix : Custom
Codec ID : XVID
Codec ID/Hint : XviD
Duration : 1 h 50 min
Bit rate : 766 kb/s
Width : 688 pixels
Height : 288 pixels
Display aspect ratio : 2.40:1
Frame rate : 23.976 (24000/1001) FPS
Color space : YUV
Chroma subsampling : 4:2:0
Bit depth : 8 bits
Scan type : Progressive
Compression mode : Lossy
Bits/(Pixel*Frame) : 0.161
Stream size : 608 MiB (81%)
Writing library : XviD 73
Audio #1
ID : 1
Format : MPEG Audio
Format version : Version 1
Format profile : Layer 3
Codec ID : 55
Codec ID/Hint : MP3
Duration : 1 h 50 min
Bit rate mode : Constant
Bit rate : 128 kb/s
Channel(s) : 2 channels
Sampling rate : 48.0 kHz
Frame rate : 41.667 FPS (1152 SPF)
Compression mode : Lossy
Stream size : 102 MiB (14%)
Alignment : Aligned on interleaves
Writing library : LAME3.99r
Encoding settings : -m s -V 4 -q 2 -lowpass 17 -b 128
Релиз от:


Last edited by Monk on 2019-05-15 13:19; edited 1 time in total
[Profile] [PM]
Display posts:    
Reply to topic

Current time is: 26-May 22:13

All times are UTC + 3



You cannot post new topics in this forum
You cannot reply to topics in this forum
You cannot edit your posts in this forum
You cannot delete your posts in this forum
You cannot vote in polls in this forum
You cannot attach files in this forum
You cannot download files in this forum