Discovery. Голые и напуганные / Naked and Afraid [9 сезон: 1-7 серии] (2018) HDTVRip от Starik60

Reply to topic
 
Author Message

Starik60 ®

Gender: Male

Longevity: 7 months 7 days

Posts: 137

Location: Москва, Россия

Post 18-May-2019 21:02

[Quote]

Голые и напуганные / Naked and Afraid
Год выпуска: 2018
Жанр: Документальный, реалити-шоу, экстрим
Выпущено: США, Discovery, Renegade 83
Режиссер: Мисси Хьюз, Тимми Пол
В ролях: Клинт Живоин, Эррол Джеймс Снайдер, Пума Кабра, Кайли Фурно
О фильме: Двум голым и незнакомым друг с другом мужчине и женщине приходится выживать в дикой глуши и в экстремальных погодных условиях. В этом сезоне участникам предстоит побывать в африканской саванне и в джунглях Гайаны, на мексиканском острове Кайо Венадо, во влажном тропическом лесу в Таиланде и в непроходимых джунглях Никарагуа. Каждая пара «Робинзонов» должна провести на месте высадки 21 день без одежды, продовольствия и снаряжения, но им разрешено взять с собой одну личную вещь. При этом никакой награды они не получат, ведь это испытание не за главный приз, а проверка своей физической и психологической выносливости. Подстерегающие опасности и непредсказуемость погоды заставят смельчаков действовать сообща. Сталкиваясь с голодом и жаждой, погодными катаклизмами и неизбежными проблемами, удастся ли нашим героям пройти проверку на прочность, или природа окажется сильнее человека?

Качество: HDTVRip
Видео: XviD, ~ 1600 Кбит/с, 720x400
Аудио: AC3, 2 ch, 192 Кбит/c
Продолжительность: 7 x ~ 00:44:00
Перевод: Профессиональный (многоголосый, закадровый)

Скриншоты



MediaInfo

General
Complete name : G:\Раздачи 2\Голые и напуганные S09 HDTVRip Starik60\01 Голые и напуганные by Starik60.avi
Format : AVI
Format/Info : Audio Video Interleave
File size : 563 MiB
Duration : 43 min 38 s
Overall bit rate : 1 802 kb/s
Writing application : VirtualDubMod 1.5.10.3 | www.virtualdub-fr.org || (build 2550/release)
Writing library : VirtualDubMod build 2550/release
Video
ID : 0
Format : MPEG-4 Visual
Format profile : Advanced Simple@L5
Format settings : BVOP1 / Custom Matrix
Format settings, BVOP : 1
Format settings, QPel : No
Format settings, GMC : No warppoints
Format settings, Matrix : Custom
Codec ID : XVID
Codec ID/Hint : XviD
Duration : 43 min 38 s
Bit rate : 1 601 kb/s
Width : 720 pixels
Height : 400 pixels
Display aspect ratio : 16:9
Frame rate : 25.000 FPS
Color space : YUV
Chroma subsampling : 4:2:0
Bit depth : 8 bits
Scan type : Progressive
Compression mode : Lossy
Bits/(Pixel*Frame) : 0.222
Stream size : 500 MiB (89%)
Writing library : XviD 73
Audio
ID : 1
Format : AC-3
Format/Info : Audio Coding 3
Commercial name : Dolby Digital
Codec ID : 2000
Duration : 43 min 38 s
Bit rate mode : Constant
Bit rate : 192 kb/s
Channel(s) : 2 channels
Channel layout : L R
Sampling rate : 48.0 kHz
Frame rate : 31.250 FPS (1536 SPF)
Bit depth : 16 bits
Compression mode : Lossy
Stream size : 59.9 MiB (11%)
Alignment : Split accross interleaves
Interleave, duration : 40 ms (1.00 video frame)
Interleave, preload duratio : 500 ms
Service kind : Complete Main

Название серий

01. Смертельное жало.
02. Замерзшие и напуганные.
03. Сила не в количестве.
04. Трио.
05.
06. Племя.
Благодарю за отличный постер ValkiriaGF
Релиз от:
[Profile] [PM]
Display posts:    
Reply to topic

Current time is: 20-Jun 06:23

All times are UTC + 3



You cannot post new topics in this forum
You cannot reply to topics in this forum
You cannot edit your posts in this forum
You cannot delete your posts in this forum
You cannot vote in polls in this forum
You cannot attach files in this forum
You cannot download files in this forum