Discovery. Голые и напуганные / Naked and Afraid [9 сезон: 1-17 серии из 17] (2018) HDTVRip 720р от Starik60

Reply to topic
 
Author Message

Starik60 ®

Gender: Male

Longevity: 10 months 6 days

Posts: 161

Location: Москва, Россия

Post 18-May-2019 21:13

[Quote]

Голые и напуганные / Naked and Afraid
Год выпуска: 2018
Жанр: Документальный, реалити-шоу, экстрим
Выпущено: США, Discovery, Renegade 83
Режиссер: Мисси Хьюз, Тимми Пол
В ролях: Клинт Живоин, Эррол Джеймс Снайдер, Пума Кабра, Кайли Фурно
О фильме: Двум голым и незнакомым друг с другом мужчине и женщине приходится выживать в дикой глуши и в экстремальных погодных условиях. В этом сезоне участникам предстоит побывать в африканской саванне и в джунглях Гайаны, на мексиканском острове Кайо Венадо, во влажном тропическом лесу в Таиланде и в непроходимых джунглях Никарагуа. Каждая пара «Робинзонов» должна провести на месте высадки 21 день без одежды, продовольствия и снаряжения, но им разрешено взять с собой одну личную вещь. При этом никакой награды они не получат, ведь это испытание не за главный приз, а проверка своей физической и психологической выносливости. Подстерегающие опасности и непредсказуемость погоды заставят смельчаков действовать сообща. Сталкиваясь с голодом и жаждой, погодными катаклизмами и неизбежными проблемами, удастся ли нашим героям пройти проверку на прочность, или природа окажется сильнее человека?

Качество: HDTVRip 720p
Видео: MPEG-4 AVC, ~ 4000 Кбит/с, 1280x720
Аудио: MP2, 2 ch, 384 Кбит/с
Продолжительность: 17 x ~ 00:44:00
Перевод: Профессиональный (многоголосый, закадровый)

Скриншоты



MediaInfo

General
Unique ID : 259580782993921985439093357874137959350 (0xC34970B73582EFE2EA26397730168BB6)
Complete name : G:\Раздачи 2\Голые и напуганные S09 HDTVRip 720p Starik60\01 Голые и напуганные by Starik60.mkv
Format : Matroska
Format version : Version 2
File size : 1.34 GiB
Duration : 43 min 38 s
Overall bit rate mode : Constant
Overall bit rate : 4 389 kb/s
Writing application : Lavf54.63.104
Writing library : Lavf54.63.104
Video
ID : 1
Format : AVC
Format/Info : Advanced Video Codec
Format profile : High@L4.1
Format settings : CABAC / 3 Ref Frames
Format settings, CABAC : Yes
Format settings, ReFrames : 3 frames
Codec ID : V_MPEG4/ISO/AVC
Duration : 43 min 38 s
Bit rate mode : Constant
Bit rate : 4 000 kb/s
Width : 1 280 pixels
Height : 720 pixels
Display aspect ratio : 16:9
Frame rate mode : Constant
Frame rate : 50.000 FPS
Standard : PAL
Color space : YUV
Chroma subsampling : 4:2:0
Bit depth : 8 bits
Scan type : Progressive
Bits/(Pixel*Frame) : 0.087
Stream size : 1.19 GiB (89%)
Default : No
Forced : No
Color range : Limited
Color primaries : BT.709
Transfer characteristics : BT.709
Matrix coefficients : BT.709
Audio
ID : 2
Format : MPEG Audio
Format version : Version 1
Format profile : Layer 2
Codec ID : A_MPEG/L2
Codec ID/Hint : MP2
Duration : 43 min 38 s
Bit rate mode : Constant
Bit rate : 384 kb/s
Channel(s) : 2 channels
Sampling rate : 48.0 kHz
Compression mode : Lossy
Delay relative to video : 12 ms
Stream size : 120 MiB (9%)
Language : English
Default : Yes
Forced : No

Название серий

01. Смертельное жало.
02. Замерзшие и напуганные.
03. Сила не в количестве.
04. Трио.
05.
06. Племя.
08. В окружении кусачих.
09. Пропавшая звезда.
10. Фан-издание.
11. Пара.
12. Река.
13. Голые и чудные. (спецвыпуск)
14. Пчёлы.
15. Голые и напуганные привидениями.(спецвыпуск)
16 Гондурасский ад.
17. Голые и напуганные, и смешные. (спецвыпуск)
Благодарю за отличный постер ValkiriaGF
Релиз от:
[Profile] [PM]
Display posts:    
Reply to topic

Current time is: 18-Sep 16:34

All times are UTC + 3



You cannot post new topics in this forum
You cannot reply to topics in this forum
You cannot edit your posts in this forum
You cannot delete your posts in this forum
You cannot vote in polls in this forum
You cannot attach files in this forum
You cannot download files in this forum