Без колебаний [1-4 серии из 4] (2019) WEB-DLRip от GeneralFilm

Reply to topic
 
Author Message

vsobbol ®

Gender: Male

Longevity: 7 months 4 days

Posts: 205

Location: Донецк

Post 26-May-2019 21:46

[Quote]

Без колебаний
Год выпуска: 2019
Жанр: Мелодрама
Выпущено: Украина, «Star Media»
Режиссер: Анатолий Григорьев
В ролях: Алина Сергеева, Вячеслав Довженко, Дмитрий Чернов (II), Олеся Островская, Эльдар Калимулин, Даниил Мирешкин, Константин Корецкий
О фильме: Ради сына Дина бросила работу в школе – зарплаты учительницы не хватало на лекарства сыну. Женщина убирает квартиры состоятельных людей, в частности – своей бывшей одноклассницы и соседки, а ныне бизнесвумен Тамары. Дина знает, что сын не проживет и года без операции, ей срочно нужно найти деньги. Неожиданно Тамара, которая не давала ни копейки своим родным, предлагает Дине пять тысяч долларов. Дина счастлива – сын будет спасен. Но тот отказывается брать деньги Тамары – уверен, что мать из-за него унизилась перед богатой соседкой. Сын заявляет, что не ляжет на операцию и убегает... Соседку Тамару находят убитой – полицию вызвал аноним. Под подозрение попадает Дина, которая убирала в квартире и которой требовались деньги на операцию сына.

Качество: WEB-DLRip
Видео: XviD build 73, 720x400 (16:9), 25.000 fps, ~ 1450 Kbps (~ 0.205 bit/pixel)
Аудио: 48.0 kHz, AC3, 2/0 ch, 192 kbps
Продолжительность: 4 х ~ 00:47:00
Перевод / Озвучка: Не требуется [Русский]
Cубтитры: нет

Скриншоты



MediaInfo

General
Complete name : D:\Razdachi\Bez.Kolebanij.2019.WEB-DLRip.GeneralFilm\Bez.Kolebanij.e01.avi
Format : AVI
Format/Info : Audio Video Interleave
File size : 558 MiB
Duration : 47 min 2 s
Overall bit rate : 1 657 kb/s
Writing application : VirtualDubMod 1.5.10.3 | www.virtualdub-fr.org || (build 2550/release)
Writing library : VirtualDubMod build 2550/release
Video
ID : 0
Format : MPEG-4 Visual
Format profile : Advanced Simple@L5
Format settings : BVOP1 / Custom Matrix
Format settings, BVOP : 1
Format settings, QPel : No
Format settings, GMC : No warppoints
Format settings, Matrix : Custom
Codec ID : XVID
Codec ID/Hint : XviD
Duration : 47 min 2 s
Bit rate : 1 455 kb/s
Width : 720 pixels
Height : 400 pixels
Display aspect ratio : 16:9
Frame rate : 25.000 FPS
Color space : YUV
Chroma subsampling : 4:2:0
Bit depth : 8 bits
Scan type : Progressive
Compression mode : Lossy
Bits/(Pixel*Frame) : 0.202
Stream size : 490 MiB (88%)
Writing library : XviD 73
Audio
ID : 1
Format : AC-3
Format/Info : Audio Coding 3
Commercial name : Dolby Digital
Codec ID : 2000
Duration : 47 min 2 s
Bit rate mode : Constant
Bit rate : 192 kb/s
Channel(s) : 2 channels
Channel layout : L R
Sampling rate : 48.0 kHz
Frame rate : 31.250 FPS (1536 SPF)
Bit depth : 16 bits
Compression mode : Lossy
Stream size : 64.6 MiB (12%)
Alignment : Split accross interleaves
Interleave, duration : 40 ms (1.00 video frame)
Interleave, preload duratio : 500 ms
Service kind : Complete Main
Релиз от:
[Profile] [PM]
Display posts:    
Reply to topic

Current time is: 20-Jun 06:06

All times are UTC + 3



You cannot post new topics in this forum
You cannot reply to topics in this forum
You cannot edit your posts in this forum
You cannot delete your posts in this forum
You cannot vote in polls in this forum
You cannot attach files in this forum
You cannot download files in this forum