Discovery: Золотой путь Паркера Шнабеля / Gold rush Parkers trail [3 сезон: 1-2 серии] (2019) HDTVRip 720p от Starik60

Reply to topic
 
Author Message

Starik60 ®

Gender: Male

Longevity: 7 months 7 days

Posts: 137

Location: Москва, Россия

Post 07-Jun-2019 00:45

[Quote]

Золотой путь Паркера Шнабеля / Gold Rush Parkers trail
Год выпуска: 2019
Жанр: Документальный, природа, география, путешествия, приключения, исследование
Выпущено: США, Discovery Channel
Режисёр: Джеймс Левел
О фильме: Испытав на себе трудные и опасные тропы Клондайка и удушливые тропические джунгли Гайаны, Паркер Шнабель готов вновь попытать счастья в поисках золота на этот раз в Папуа — Новой Гвинее. Он хочет прикоснуться к истории своего дедушки Джона, который служил на острове во время Второй мировой войны, но при жизни никогда не говорил об этом. Паркер узнает о зарождении золотой лихорадки в Папуа — Новой Гвинее, пройдёт по следам Майкла Лейхи, знаменитого путешественника и старателя XX века, и познакомится с местными способами золотодобычи.

Качество: HDTVRip 720p
Видео: MPEG-4 AVC, ~ 4000 Кбит/с, 1280x720
Аудио: MP2, 2 ch, 384 Кбит/с
Продолжительность: 2 x ~ 00:44:00
Перевод: Профессиональный (многоголосый, закадровый)

Скриншоты



MediaInfo

General
Unique ID : 222218112059926043490380524829726477567 (0xA72DA6D093DAF89DACC027E1A8580CFF)
Complete name : G:\Раздачи 2\Золотой путь S03 HDTVRip 720p Starik60\01 Золотой путь Паркера Шнабеля by Starik60 .mkv
Format : Matroska
Format version : Version 4 / Version 2
File size : 1.34 GiB
Duration : 43 min 42 s
Overall bit rate mode : Constant
Overall bit rate : 4 380 kb/s
Encoded date : UTC 2019-06-06 21:18:49
Writing application : mkvmerge v7.6.0 ('Garden of Dreams') 32bit built on Feb 11 2015 00:18:47
Writing library : libebml v1.3.1 + libmatroska v1.4.2 / Lavf54.63.104
Cover : Yes
Attachments : cover.jpg
Video
ID : 1
Format : AVC
Format/Info : Advanced Video Codec
Format profile : High@L4.1
Format settings : CABAC / 3 Ref Frames
Format settings, CABAC : Yes
Format settings, ReFrames : 3 frames
Codec ID : V_MPEG4/ISO/AVC
Duration : 43 min 42 s
Bit rate mode : Constant
Bit rate : 4 000 kb/s
Width : 1 280 pixels
Height : 720 pixels
Display aspect ratio : 16:9
Frame rate mode : Constant
Frame rate : 50.000 FPS
Standard : PAL
Color space : YUV
Chroma subsampling : 4:2:0
Bit depth : 8 bits
Scan type : Progressive
Bits/(Pixel*Frame) : 0.087
Stream size : 1.22 GiB (91%)
Default : No
Forced : No
Color range : Limited
Color primaries : BT.709
Transfer characteristics : BT.709
Matrix coefficients : BT.709
Audio
ID : 2
Format : MPEG Audio
Format version : Version 1
Format profile : Layer 2
Codec ID : A_MPEG/L2
Codec ID/Hint : MP2
Duration : 43 min 42 s
Bit rate mode : Constant
Bit rate : 384 kb/s
Channel(s) : 2 channels
Sampling rate : 48.0 kHz
Frame rate : 41.667 FPS (1152 SPF)
Compression mode : Lossy
Delay relative to video : 12 ms
Stream size : 120 MiB (9%)
Language : English
Default : Yes
Forced : No

Название серий

01. Легендарные перспективы.
02. Опасные глубины.
03.
04.
05.
Благодарю за отличный постер ValkiriaGF
Релиз от:
[Profile] [PM]
Display posts:    
Reply to topic

Current time is: 20-Jun 06:09

All times are UTC + 3



You cannot post new topics in this forum
You cannot reply to topics in this forum
You cannot edit your posts in this forum
You cannot delete your posts in this forum
You cannot vote in polls in this forum
You cannot attach files in this forum
You cannot download files in this forum