На Париж (2018) WEB-DLRip от GeneralFilm | iTunes

Reply to topic
 
Author Message

vsobbol ®

Gender: Male

Longevity: 7 months 4 days

Posts: 205

Location: Донецк

Post 10-Jun-2019 02:48

[Quote]

На Париж
Год выпуска: 2018
Жанр: История, приключения
Выпущено: Россия, «Blitz Films»
Режиссер: Сергей Саркисов
В ролях: Дмитрий Певцов, Сергей Маковецкий, Рената Литвинова, Евгений Стычкин, Фёдор Добронравов, Максим Важов, Торнике Квитатиани, Игорь Золотовицкий, Кирилл Зайцев, Александр Рапопорт
О фильме: История советских офицеров, плечом к плечу прошедших войну и решивших отпраздновать Великую Победу в Париже. Друзья, выдержавшие страшный путь войны, доходят до самого Берлина и берут курс на новую жизнь — на любовь, захватывающие приключения и город мечты Париж.

Качество: WEB-DLRip
Видео: XviD build 73, 704x288 (2.40:1), 957 Kbps, 23.976 fps, (0.197 bit/pixel)
Аудио: 48.0 kHz, MP3, 2/0 ch, 128 kbps
Продолжительность: 01:35:18
Перевод / Озвучка: Не требуется [Русский]
Cубтитры: нет

Скриншоты

MediaInfo

General
Complete name : D:\Razdachi\Na.Parizh.2018.WEB-DLRip.GeneralFilm.avi
Format : AVI
Format/Info : Audio Video Interleave
File size : 746 MiB
Duration : 1 h 35 min
Overall bit rate : 1 095 kb/s
Writing application : VirtualDubMod 1.5.10.3 | www.virtualdub-fr.org || (build 2550/release)
Writing library : VirtualDubMod build 2550/release
Video
ID : 0
Format : MPEG-4 Visual
Format profile : Advanced Simple@L5
Format settings : BVOP1 / Custom Matrix
Format settings, BVOP : 1
Format settings, QPel : No
Format settings, GMC : No warppoints
Format settings, Matrix : Custom
Codec ID : XVID
Codec ID/Hint : XviD
Duration : 1 h 35 min
Bit rate : 957 kb/s
Width : 704 pixels
Height : 288 pixels
Display aspect ratio : 2.40:1
Frame rate : 23.976 (24000/1001) FPS
Color space : YUV
Chroma subsampling : 4:2:0
Bit depth : 8 bits
Scan type : Progressive
Compression mode : Lossy
Bits/(Pixel*Frame) : 0.197
Stream size : 653 MiB (87%)
Writing library : XviD 73
Audio
ID : 1
Format : MPEG Audio
Format version : Version 1
Format profile : Layer 3
Codec ID : 55
Codec ID/Hint : MP3
Duration : 1 h 35 min
Bit rate mode : Constant
Bit rate : 128 kb/s
Channel(s) : 2 channels
Sampling rate : 48.0 kHz
Frame rate : 41.667 FPS (1152 SPF)
Compression mode : Lossy
Stream size : 87.3 MiB (12%)
Alignment : Aligned on interleaves
Interleave, duration : 42 ms (1.00 video frame)
Interleave, preload duratio : 504 ms
Writing library : LAME3.99r
Encoding settings : -m s -V 4 -q 2 -lowpass 17 -b 128
Релиз от:
[Profile] [PM]
Display posts:    
Reply to topic

Current time is: 20-Jun 06:05

All times are UTC + 3



You cannot post new topics in this forum
You cannot reply to topics in this forum
You cannot edit your posts in this forum
You cannot delete your posts in this forum
You cannot vote in polls in this forum
You cannot attach files in this forum
You cannot download files in this forum