Смотритель маяка [1-12 серии из 12] (2018) WEBRip-AVC от Files-x

Reply to topic
 
Author Message

Серый1779 ®

Gender: Male

Longevity: 10 months 6 days

Posts: 557

Location: Украина

Post 12-Jun-2019 12:37

[Quote]

Смотритель маяка
Год выпуска: 2018
Жанр: Детектив, шпионский фильм
Выпущено: Россия, Киностудия КИТ, «Телеостров» по заказу телеканала НТВ
Режиссер: Павел Дроздов
В ролях: Егор Бероев, Максим Дрозд, Екатерина Ванчугова, Виктор Тереля, Александра Богданова, Игорь Хрипунов, Василий Мищенко, Константин Снегов, Игорь Климов, Константин Адаев, Игорь Лебедев, Александр Волженский, Дмитрий Харатьян, Роман Пылаев, Михаил Сопов, Александр Богданов (II), Александр Коваль (IV), Вадим Цаллати, Алексей Марков, Вячеслав Гостищев, Сергей Голотвин, Юрий Алехин, А. Василенко, Алёна Гудкова, Роман Гайдамак, Ольга Сопова, Екатерина Архарова
О фильме: Накануне первой мировой войны, русской контрразведке становится известно о предстоящей крупной диверсии в Крыму. Для её осуществления, на территорию России тайно проникает германский шпион, который должен заминировать Севастопольскую бухту, уничтожить главные силы русского флота и дать возможность высадке немецко-турецкого десанта. Для выполнения задания он использует завербованных русских из самых разных слоев — от офицеров до уголовников. Один из них, наш главный герой Арсений Седов, становится другом шпиона. Враг не подозревает, что Арсений на самом деле является разведчиком Генерального Штаба.
Качество: WEBRip-AVC
Видео: MPEG-4 AVC, ~ 2000 Кбит/с, 1024x432, 25 кадр/с
Аудио: AC3, 2 ch, 192 Кбит/с
Продолжительность: 12 х ~ 00:48:21
Перевод / Озвучка: Не требуется [Русский]
Cубтитры: нет

Скриншоты



MediaInfo

General
Unique ID : 208391593966550310553511600930961030838 (0x9CC6C2D74F78E97E806B3B45CF74FEB6)
Complete name : F:\Smotritel mayaka.(2018).WEBRip.(AVC).Files-x\01.Smotritel mayaka.(2019).WEBRip.(AVC).by.Серый1779.Files-x.mkv
Format : Matroska
Format version : Version 2
File size : 759 MiB
Duration : 48 min 21 s
Overall bit rate : 2 193 kb/s
Encoded date : UTC 2019-06-12 09:25:28
Writing application : mkvmerge v7.8.0 ('River Man') 32bit built on Apr 3 2015 12:11:22
Writing library : libebml v1.3.1 + libmatroska v1.4.2
Video
ID : 1
Format : AVC
Format/Info : Advanced Video Codec
Format profile : High@L4.1
Format settings : CABAC / 9 Ref Frames
Format settings, CABAC : Yes
Format settings, RefFrames : 9 frames
Codec ID : V_MPEG4/ISO/AVC
Duration : 48 min 21 s
Bit rate : 2 000 kb/s
Width : 1 024 pixels
Height : 432 pixels
Display aspect ratio : 2.40:1
Frame rate mode : Constant
Frame rate : 25.000 FPS
Color space : YUV
Chroma subsampling : 4:2:0
Bit depth : 8 bits
Scan type : Progressive
Bits/(Pixel*Frame) : 0.181
Stream size : 677 MiB (89%)
Writing library : x264 core 146 r2538 121396c
Encoding settings : cabac=1 / ref=9 / deblock=1:-2:-1 / analyse=0x3:0x133 / me=umh / subme=9 / psy=1 / psy_rd=1.00:0.15 / mixed_ref=1 / me_range=32 / chroma_me=1 / trellis=2 / 8x8dct=1 / cqm=0 / deadzone=21,11 / fast_pskip=0 / chroma_qp_offset=-3 / threads=18 / lookahead_threads=3 / sliced_threads=0 / nr=0 / decimate=1 / interlaced=0 / bluray_compat=0 / constrained_intra=0 / bframes=9 / b_pyramid=2 / b_adapt=2 / b_bias=0 / direct=1 / weightb=1 / open_gop=0 / weightp=2 / keyint=250 / keyint_min=25 / scenecut=40 / intra_refresh=0 / rc=2pass / mbtree=0 / bitrate=2000 / ratetol=1.0 / qcomp=0.60 / qpmin=0 / qpmax=69 / qpstep=4 / cplxblur=20.0 / qblur=0.5 / ip_ratio=1.40 / pb_ratio=1.30 / aq=2:1.00
Default : Yes
Forced : No
Color range : Limited
Color primaries : BT.709
Transfer characteristics : BT.709
Matrix coefficients : BT.709
Audio
ID : 2
Format : AC-3
Format/Info : Audio Coding 3
Format settings, Endianness : Big
Codec ID : A_AC3
Duration : 48 min 21 s
Bit rate mode : Constant
Bit rate : 192 kb/s
Channel(s) : 2 channels
Channel positions : Front: L R
Sampling rate : 48.0 kHz
Frame rate : 31.250 FPS (1536 SPF)
Bit depth : 16 bits
Compression mode : Lossy
Stream size : 66.4 MiB (9%)
Service kind : Complete Main
Default : Yes
Forced : No
Релиз от:
[Profile] [PM]
Display posts:    
Reply to topic

Current time is: 18-Sep 16:34

All times are UTC + 3



You cannot post new topics in this forum
You cannot reply to topics in this forum
You cannot edit your posts in this forum
You cannot delete your posts in this forum
You cannot vote in polls in this forum
You cannot attach files in this forum
You cannot download files in this forum