Беловодье. Тайна затерянной страны [1-12 серии из 12] (2016) WEB-DLRip-AVC от Files-x

Reply to topic
 
Author Message

papa1951deda ®

Gender: Male

Longevity: 9 months 28 days

Posts: 290

Location: Казахстан

Post 12-Jun-2019 17:50

[Quote]

Беловодье. Тайна затерянной страны Год выпуска: 2016
Жанр: Мистика, приключения, фэнтези
Выпущено: Россия, ИВД Кино
Режиссер: Евгений Бедарев
В ролях: Александр Петров (II), Светлана Суханова, Татьяна Орлова, Алексей Васильев (II), Алла Подчуфарова, Юлия Самойленко, Павел Крайнов, Роман Курцын, Марианна Шульц, Залим Мирзоев, Сергей Майоров (III), Любовь Виролайнен, Александр Пальчиков, Екатерина Ефимова, Руслан Спояло, Евгений Морозов, Данила Якушев, Рустам Махмутов, Дарья Макарова, Алёна Ковалёва, Михаил Хмуров, Николай Токарев, Дмитрий Бедарев, Максим Важов, Елена Аросьева
О фильме: Герои самого зрелищного российского фэнтези-сериала «Пока цветет папоротник» возвращаются на экраны в новой полной приключений и волшебства истории «Беловодье. Тайна затерянной страны». Страшная тайна Хранителей открыта. Провал земли в заброшенном горном монастыре освободил силу, которая угрожает всей жизни на Земле. В параллельных мирах развернулась борьба за власть, каждый ведет свою смертельную игру, и понять, кто враг, а кто друг невозможно. Остается только один шанс на спасение. Но для последней Надежды нужна крепкая Вера и страстная Любовь.
Качество: WEB-DLRip-AVC
Видео: MPEG-4 AVC, ~ 1600 Кбит/с, 720x400, 25 кадр/с
Аудио: AC3, 2 ch, 192 Кбит/с
Продолжительность: 12 х ~ 00:48:00
Перевод: Не требуется [Русский]
Cубтитры: нет

Скриншоты

MediaInfo

General
Unique ID : 233794120056567947145888757184848714931 (0xAFE31C12EE47F7BEACA666B016FFDCB3)
Complete name : D:\моё видио\Беловодье. Тайна затерянной страны . 2019.WEB-DLRip. Files-x\01. Беловодье. Тайна затерянной страны .2016.WEB-DLRip. Files-x.mkv
Format : Matroska
Format version : Version 2
File size : 612 MiB
Duration : 47mn 43s
Overall bit rate : 1 794 Kbps
Encoded date : UTC 2019-06-12 14:08:23
Writing application : mkvmerge v7.8.0 ('River Man') 32bit built on Apr 3 2015 12:11:22
Writing library : libebml v1.3.1 + libmatroska v1.4.2
Video
ID : 1
Format : AVC
Format/Info : Advanced Video Codec
Format profile : High@L4.1
Format settings, CABAC : Yes
Format settings, ReFrames : 9 frames
Codec ID : V_MPEG4/ISO/AVC
Duration : 47mn 43s
Bit rate : 1 600 Kbps
Width : 720 pixels
Height : 400 pixels
Display aspect ratio : 16:9
Frame rate mode : Constant
Frame rate : 25.000 fps
Color space : YUV
Chroma subsampling : 4:2:0
Bit depth : 8 bits
Scan type : Progressive
Bits/(Pixel*Frame) : 0.222
Stream size : 535 MiB (87%)
Writing library : x264 core 146 r2538 121396c
Encoding settings : cabac=1 / ref=9 / deblock=1:-2:-1 / analyse=0x3:0x133 / me=umh / subme=9 / psy=1 / psy_rd=1.00:0.15 / mixed_ref=1 / me_range=32 / chroma_me=1 / trellis=2 / 8x8dct=1 / cqm=0 / deadzone=21,11 / fast_pskip=0 / chroma_qp_offset=-3 / threads=18 / lookahead_threads=3 / sliced_threads=0 / nr=0 / decimate=1 / interlaced=0 / bluray_compat=0 / constrained_intra=0 / bframes=9 / b_pyramid=2 / b_adapt=2 / b_bias=0 / direct=1 / weightb=1 / open_gop=0 / weightp=2 / keyint=250 / keyint_min=25 / scenecut=40 / intra_refresh=0 / rc=2pass / mbtree=0 / bitrate=1600 / ratetol=1.0 / qcomp=0.60 / qpmin=0 / qpmax=69 / qpstep=4 / cplxblur=20.0 / qblur=0.5 / ip_ratio=1.40 / pb_ratio=1.30 / aq=2:1.00
Default : Yes
Forced : No
Color primaries : BT.709
Transfer characteristics : BT.709
Matrix coefficients : BT.709
Audio
ID : 2
Format : AC-3
Format/Info : Audio Coding 3
Mode extension : CM (complete main)
Format settings, Endianness : Big
Codec ID : A_AC3
Duration : 47mn 43s
Bit rate mode : Constant
Bit rate : 192 Kbps
Channel(s) : 2 channels
Channel positions : Front: L R
Sampling rate : 48.0 KHz
Bit depth : 16 bits
Compression mode : Lossy
Stream size : 65.5 MiB (11%)
Default : Yes
Forced : No
Релиз от:
[Profile] [PM]
Display posts:    
Reply to topic

Current time is: 18-Sep 17:19

All times are UTC + 3



You cannot post new topics in this forum
You cannot reply to topics in this forum
You cannot edit your posts in this forum
You cannot delete your posts in this forum
You cannot vote in polls in this forum
You cannot attach files in this forum
You cannot download files in this forum